<?xml version="1.0" standalone="no"?>
<!DOCTYPE svg PUBLIC "-//W3C//DTD SVG 1.1//EN" "http://www.w3.org/Graphics/SVG/1.1/DTD/svg11.dtd">
<svg xmlns="http://www.w3.org/2000/svg">
<defs >
<font id="Asap" horiz-adv-x="546" ><font-face
    font-family="Asap SemiBold"
    units-per-em="1000"
    panose-1="2 15 7 4 3 2 2 13 2 3"
    ascent="934"
    descent="-212"
    alphabetic="0" />
<glyph unicode=" " glyph-name="space" horiz-adv-x="240" />
<glyph unicode="!" glyph-name="exclam" horiz-adv-x="294" d="M98 215T91 221T83 243L128 674Q131 702 184 702H218Q269 702 269 676Q269 665 220 432L181 243Q178 228 168 222T134 215H123Q98 215 91 221ZM66 -2T55 5T43 26L52 109Q55 137 108 137H134Q161 137
172 130T184 109L175 26Q172 -2 120 -2H93Q66 -2 55 5Z" />
<glyph unicode="&quot;" glyph-name="quotedbl" horiz-adv-x="319" d="M77 467T77 490V674Q77 702 132 702H140Q165 702 177 696T190 674Q187 659 181 631T168 574L148 490Q142 467 116 467H106Q77 467 77 490ZM216 467T216 490V674Q216 702 271 702H279Q305 702
317 696T329 674Q326 659 320 631T307 574L287 490Q283 467 255 467H245Q216 467 216 490Z" />
<glyph unicode="#" glyph-name="numbersign" horiz-adv-x="534" d="M26 -2T26 18Q26 26 35 54Q67 159 75 188H20Q7 188 2 195T-3 220V222Q-3 249 4 267T29 286H103L139 409H79Q66 409 61 416T56 442V444Q56 470 63 488T88 507H166L210 658Q214 672 227 679T265
686H275Q311 686 311 667Q311 659 297 617Q292 600 284 574T265 507H368L411 658Q416 673 428 679T467 686H477Q513 686 513 667Q513 662 501 620Q494 600 468 507H514Q537 507 537 475V473Q537 447 530 428T504 409H440L404 286H458Q481 286 481 253V251Q479 188
448 188H375L329 26Q324 12 312 5T275 -2H265Q244 -2 237 3T229 19Q229 28 238 55Q265 149 276 188H174L127 26Q123 12 110 5T73 -2H63Q26 -2 26 18ZM305 286L341 409H238L202 286H305Z" />
<glyph unicode="$" glyph-name="dollar" horiz-adv-x="476" d="M198 -72T195 -68T191 -52L196 -7Q153 -5 110 5T45 33Q28 48 28 65Q28 121 34 140T50 159Q57 159 73 147Q103 128 134 116T207 104L228 302Q172 325 138 344T79 399T54 488Q54 585 115 640T271 705L275
741Q276 752 281 756T297 761H308Q318 761 321 757T325 741L322 707Q360 706 396 697T452 673Q473 658 473 642Q473 625 453 596T419 566Q415 566 408 569T397 574Q378 583 358 589T310 596L291 414Q345 390 378 370T435 315T459 228Q459 120 399 62T246 -5L242
-52Q239 -72 220 -72H209Q198 -72 195 -68ZM258 591Q219 583 200 561T181 509Q181 485 197 468T242 436L258 591ZM291 120T311 143T332 203Q332 228 318 245T276 277L258 111Q291 120 311 143Z" />
<glyph unicode="%" glyph-name="percent" horiz-adv-x="765" d="M143 375T106 404T68 509Q68 620 117 663T233 707Q288 707 325 678T362 573Q362 472 316 424T198 375Q143 375 106 404ZM121 -2T121 9Q121 16 126 22L557 678Q573 702 597 702H634Q643 702 647 699T652
691Q652 686 646 678L216 22Q200 -2 175 -2H138Q121 -2 121 9ZM242 447T258 485T274 569Q274 633 225 633Q186 633 172 597T157 514Q157 447 205 447Q242 447 258 485ZM409 -7T409 126Q409 237 458 281T574 325Q629 325 666 295T704 190Q704 90 657 42T539 -7Q409
-7 409 126ZM582 65T598 102T614 184Q614 250 566 250Q527 250 513 213T498 130Q498 65 546 65Q582 65 598 102Z" />
<glyph unicode="&amp;" glyph-name="ampersand" horiz-adv-x="624" d="M608 419T611 415T614 400V398Q614 373 600 346T561 319H519L512 252Q501 142 501 135Q501 93 537 93Q553 93 563 96T578 100Q586 100 586 89Q586 68 580 38Q576 17 552 5T499 -7Q429 -7 398
33Q357 13 316 3T220 -7Q131 -7 73 40T15 176Q15 252 54 307T155 384L156 388Q118 404 96 437T74 515Q74 574 102 617T182 684T297 707Q337 707 365 701T393 673Q393 656 387 639T371 611T355 600Q351 600 337 603T303 607Q250 607 224 577T198 506Q198 469 225
444T303 419H405L415 505Q418 534 470 534H489Q514 534 526 527T539 506L530 419H598Q608 419 611 415ZM143 142T173 118T248 93Q310 93 378 124Q377 129 377 139Q377 153 378 160Q382 211 387 257T395 319H285Q143 319 143 190Q143 142 173 118Z" />
<glyph unicode="&apos;" glyph-name="quotesingle" horiz-adv-x="183" d="M79 467T79 490V674Q79 702 134 702H142Q168 702 180 696T192 674Q189 659 183 631T170 574L150 490Q144 467 118 467H108Q79 467 79 490Z" />
<glyph unicode="(" glyph-name="parenleft" horiz-adv-x="301" d="M173 -209T163 -195Q107 -116 77 -15T47 199Q47 358 105 508T265 769Q276 783 292 783Q305 783 320 772T335 747Q335 737 326 724Q151 483 151 191Q151 100 171 17T233 -150Q237 -157 237 -165Q237
-179 220 -194T186 -209Q173 -209 163 -195Z" />
<glyph unicode=")" glyph-name="parenright" horiz-adv-x="301" d="M-6 -209T-21 -197T-36 -172Q-36 -162 -28 -153Q147 90 147 385Q147 476 128 557T65 724Q60 732 60 739Q60 753 77 768T111 783Q125 783 135 769Q191 690 221 590T251 377Q251 226 196 75T33
-195Q22 -209 7 -209Q-6 -209 -21 -197Z" />
<glyph unicode="*" glyph-name="asterisk" horiz-adv-x="373" d="M106 412T97 420T88 436Q88 446 97 455L168 542L87 568Q71 574 71 587Q71 600 78 610T98 621L110 619L192 592L202 682Q203 708 231 708Q245 708 249 702T254 682L245 592L331 619Q341 621 343
621Q351 621 358 614T365 593Q365 583 360 578T344 568L256 542L310 455Q315 447 315 440Q315 432 304 422T283 412Q271 412 264 425L210 514L136 425Q124 412 115 412Q106 412 97 420Z" />
<glyph unicode="+" glyph-name="plus" horiz-adv-x="560" d="M332 469T340 463T349 443L332 280H494Q506 280 511 272T517 246Q517 187 485 187H323L306 26Q303 -1 260 -1H249Q226 -1 218 5T209 26L226 187H65Q52 187 47 194T42 220Q42 244 49 262T74 280H235L252
443Q254 457 264 463T298 469H309Q332 469 340 463Z" />
<glyph unicode="," glyph-name="comma" horiz-adv-x="198" d="M10 -122T-1 -118T-13 -104Q-13 -95 -5 -81Q17 -42 31 -3T52 98Q55 137 108 137H123Q148 137 160 128T172 102Q170 56 143 4T81 -85T24 -122Q10 -122 -1 -118Z" />
<glyph unicode="-" glyph-name="hyphen" horiz-adv-x="320" d="M31 218T31 249V250Q31 273 37 292T64 312H264Q287 312 287 282V280Q287 258 281 238T254 218H54Q31 218 31 249Z" />
<glyph unicode="." glyph-name="period" horiz-adv-x="198" d="M30 -2T19 4T8 26L17 109Q19 137 73 137H99Q126 137 137 130T149 109L140 26Q137 -2 84 -2H58Q30 -2 19 4Z" />
<glyph unicode="/" glyph-name="slash" horiz-adv-x="370" d="M-64 -79T-64 -66Q-64 -63 -59 -53L317 676Q330 702 369 702H393Q423 702 423 689Q423 683 419 676L42 -53Q29 -79 -9 -79H-33Q-64 -79 -64 -66Z" />
<glyph unicode="0" glyph-name="zero" horiz-adv-x="535" d="M136 -7T82 64T28 270Q28 408 65 506T165 656T304 707Q397 707 451 635T505 426Q505 290 468 192T367 44T229 -7Q136 -7 82 64ZM273 93T305 131T358 246T379 435Q379 521 356 564T293 607Q258 607 226
569T174 452T154 261Q154 177 177 135T239 93Q273 93 305 131Z" />
<glyph unicode="1" glyph-name="one" horiz-adv-x="535" d="M34 0T29 8T23 33V37Q25 101 57 101H204L255 582L102 559Q81 559 81 611Q81 633 85 642T107 655L355 703Q367 703 378 696T390 680L329 101H451Q463 101 468 93T474 68V65Q474 0 441 0H46Q34 0 29 8Z" />
<glyph unicode="2" glyph-name="two" horiz-adv-x="535" d="M28 0T20 25T12 73Q12 84 14 88L309 409Q334 437 349 468T364 527Q364 565 338 585T268 606Q233 606 208 596T159 571Q157 570 148 565T134 560Q118 560 106 580T93 618Q93 645 125 665T204 696T289
707Q350 707 396 686T466 627T491 544Q491 489 468 443T382 327L174 101H430Q442 101 447 93T453 68V63Q452 34 445 17T419 0H37Q28 0 20 25Z" />
<glyph unicode="3" glyph-name="three" horiz-adv-x="535" d="M155 -7T98 5T41 51Q41 95 47 113T61 132Q64 132 86 121T137 102T205 93Q259 93 296 126T333 225Q333 273 304 296T215 319H185Q173 319 168 327T162 352V354Q162 419 196 419H218Q259 419 287 435T330
478T344 531Q344 564 323 585T258 606Q221 606 196 599T148 581Q132 574 127 574Q115 574 103 597T90 639Q90 670 151 688T285 707Q372 707 422 667T472 554Q472 495 441 452T359 388V384Q406 367 433 327T460 230Q460 154 426 101T334 20T212 -7Q155 -7 98 5Z"
/>
<glyph unicode="4" glyph-name="four" horiz-adv-x="535" d="M310 -2T300 5T289 26L302 151H25Q15 151 8 175T1 222Q1 237 4 240L359 685Q367 695 379 698T411 702H434Q460 702 470 695T481 674L437 252H486Q498 252 503 244T509 219V216Q509 151 475 151H426L413
26Q410 -2 361 -2H335Q310 -2 300 5ZM312 252L331 430L334 457Q336 485 340 513L336 514L134 252H312Z" />
<glyph unicode="5" glyph-name="five" horiz-adv-x="535" d="M142 -7T90 5T38 51Q38 95 44 113T58 132Q61 132 83 121T135 102T206 93Q266 93 304 129T343 233Q343 333 211 333H110Q93 333 86 338T79 359L129 664Q132 683 142 691T172 700H457Q480 700 480 667V664Q478
599 446 599H238L209 433H245Q471 433 471 250Q471 157 431 100T328 18T196 -7Q142 -7 90 5Z" />
<glyph unicode="6" glyph-name="six" horiz-adv-x="535" d="M139 -7T83 46T26 205Q26 368 106 479T284 647T420 703Q438 703 447 680T456 636Q456 626 454 621T443 614Q355 583 290 525T192 392Q245 420 307 420Q350 420 390 401T456 341T482 240Q482 160 446
104T351 21T229 -7Q139 -7 83 46ZM270 94T296 110T338 155T355 225Q355 271 330 295T261 319Q214 319 162 291Q152 237 152 206Q152 146 177 120T242 94Q270 94 296 110Z" />
<glyph unicode="7" glyph-name="seven" horiz-adv-x="535" d="M74 -2T62 1T49 16Q49 23 55 33L377 599H96Q84 599 79 607T73 632V638Q73 700 107 700H502Q509 700 515 677T521 633Q521 620 518 612L183 17Q172 -2 130 -2H99Q74 -2 62 1Z" />
<glyph unicode="8" glyph-name="eight" horiz-adv-x="535" d="M129 -7T74 41T19 173Q19 241 51 297T144 377Q81 420 81 501Q81 558 109 605T189 679T310 707Q395 707 445 665T495 553Q495 434 387 384Q432 362 457 326T483 228Q483 165 455 112T370 26T232 -7Q129
-7 74 41ZM372 469T372 537Q372 570 351 588T297 607Q259 607 232 583T205 514Q205 479 227 460T294 423Q372 469 372 537ZM270 93T296 108T339 150T356 215Q356 248 341 269T302 303T230 335Q190 310 169 275T147 189Q147 144 172 119T241 93Q270 93 296 108Z"
/>
<glyph unicode="9" glyph-name="nine" horiz-adv-x="535" d="M95 -3T86 20T77 65Q77 75 79 79T90 87Q178 117 243 175T341 309Q288 281 225 281Q183 281 143 300T77 360T51 461Q51 541 87 596T182 679T304 707Q394 707 450 655T507 496Q507 333 427 221T249 53T113
-3Q95 -3 86 20ZM319 381T371 409Q381 463 381 494Q381 555 356 581T291 607Q263 607 237 591T195 545T178 475Q178 429 203 405T272 381Q319 381 371 409Z" />
<glyph unicode=":" glyph-name="colon" horiz-adv-x="198" d="M71 386T60 393T48 414L57 497Q60 525 112 525H139Q166 525 177 518T189 497L180 414Q177 386 125 386H98Q71 386 60 393ZM30 -2T19 5T8 26L16 109Q19 137 71 137H98Q125 137 136 130T148 109L139
26Q136 -2 84 -2H57Q30 -2 19 5Z" />
<glyph unicode=";" glyph-name="semicolon" horiz-adv-x="198" d="M77 386T66 393T54 414L63 497Q65 525 118 525H145Q172 525 183 518T195 497L186 414Q183 386 131 386H104Q77 386 66 393ZM-9 -122T-20 -118T-32 -104Q-32 -95 -24 -81Q-2 -42 12 -3T33 98Q36
137 89 137H104Q129 137 141 128T153 102Q151 56 124 4T62 -85T5 -122Q-9 -122 -20 -118Z" />
<glyph unicode="&lt;" glyph-name="less" horiz-adv-x="560" d="M60 190Q48 195 43 203T37 223V230Q37 248 46 264T71 288L505 465Q515 467 518 467Q527 467 531 461T535 442V436Q533 378 500 365L171 239L473 112Q496 102 496 69V62Q495 41 489 26T469 10Q464
10 458 13L60 190Z" />
<glyph unicode="=" glyph-name="equal" horiz-adv-x="560" d="M48 268T48 299V307Q48 329 56 345T82 361H505Q530 361 530 331V322Q529 300 521 284T495 268H72Q48 268 48 299ZM29 94T29 124V133Q30 155 38 170T64 186H487Q511 186 511 156V148Q511 126 503 110T477
94H54Q29 94 29 124Z" />
<glyph unicode="&gt;" glyph-name="greater" horiz-adv-x="560" d="M37 10Q28 10 24 16T20 35V41Q21 66 29 85T55 112L384 238L82 365Q59 375 59 408V413Q59 434 66 450T85 467Q90 467 96 464L494 287Q506 282 511 275T517 254V248Q517 228 508 212T484 189L49 12L37 10Z" />
<glyph unicode="?" glyph-name="question" horiz-adv-x="445" d="M139 215T131 221T122 241Q122 311 221 402Q273 450 295 476T317 533Q317 596 231 596Q205 596 183 590T135 572Q130 570 123 567T111 564Q97 564 82 590T67 633Q67 668 128 687T257 707Q349 707
400 665T452 553Q452 510 436 476T395 416T332 359Q285 319 262 295T230 239Q225 226 215 221T182 215H162Q139 215 131 221ZM107 -2T97 4T86 26L94 109Q97 137 150 137H177Q204 137 215 130T226 109L218 26Q215 -2 162 -2H135Q107 -2 97 4Z" />
<glyph unicode="@" glyph-name="at" horiz-adv-x="974" d="M634 707T709 667T825 553T867 382Q867 292 838 218T757 101T642 57Q594 57 568 77T533 128Q513 94 482 76T413 57Q354 57 314 102T274 238Q274 317 298 378T367 473T469 507Q502 507 529 493T574 461Q581
485 589 494T620 503H630Q667 503 667 478Q667 471 661 421Q636 182 636 167Q636 129 673 129Q708 129 739 164T788 257T807 382Q807 464 773 526T677 622T534 657Q427 657 338 602T196 450T144 239Q144 147 177 76T271 -34T410 -74Q455 -74 485 -67T536 -51T560
-42Q566 -42 566 -52Q566 -62 563 -77Q558 -102 509 -113T410 -124Q314 -124 240 -79T125 49T84 239Q84 369 143 476T306 645T534 707Q634 707 709 667ZM545 338T557 395Q526 422 489 422Q433 422 407 375T380 245Q380 143 449 143Q473 143 496 163T537 225Q545
338 557 395Z" />
<glyph unicode="A" glyph-name="A" horiz-adv-x="613" d="M-32 -2T-32 17Q-32 23 -26 35L270 683Q278 702 322 702H366Q410 702 415 683L577 34Q579 28 579 20Q579 10 567 4T529 -2H498Q454 -2 449 17L415 154H155L93 17Q84 -2 47 -2H20Q-32 -2 -32 17ZM389 266L337
488Q330 516 330 550H326Q315 512 305 488L204 266H389Z" />
<glyph unicode="B" glyph-name="B" horiz-adv-x="593" d="M59 0T51 8T44 34L110 663Q111 682 120 691T150 700H343Q451 700 504 659T558 545Q558 488 522 439T432 371L431 367Q457 361 485 342T533 292T553 220Q553 113 480 57T276 0H77Q59 0 51 8ZM302 413Q356
413 389 443T422 516Q422 590 320 590H232L214 413H302ZM299 111Q354 111 386 140T419 221Q419 260 390 281T303 302H202L182 111H299Z" />
<glyph unicode="C" glyph-name="C" horiz-adv-x="619" d="M184 -7T113 62T41 275Q41 467 128 587T413 707Q459 707 504 699T578 675Q608 659 608 642Q608 631 597 611T571 575T546 559Q543 559 522 569T470 588T397 596Q286 596 230 517T174 294Q174 104 345 104Q432
104 520 148Q536 156 540 156Q550 156 550 143Q550 124 545 91T529 44Q507 18 447 6T333 -7Q184 -7 113 62Z" />
<glyph unicode="D" glyph-name="D" horiz-adv-x="695" d="M58 0T51 6T44 30L109 664Q111 683 120 691T149 700H370Q505 700 579 628T654 412Q654 276 609 184T483 46T297 0H76Q58 0 51 6ZM306 111Q368 111 416 142T492 238T520 398Q520 495 478 542T356 589H232L182
111H306Z" />
<glyph unicode="E" glyph-name="E" d="M56 0T49 6T42 29L108 664Q110 683 119 691T148 700H509Q521 700 526 692T532 667V659Q530 589 498 589H231L212 414H450Q462 414 467 406T473 380V373Q472 340 465 322T440 303H201L180 111H448Q460 111 465 103T471 78V70Q470
37 463 19T437 0H75Q56 0 49 6Z" />
<glyph unicode="F" glyph-name="F" horiz-adv-x="503" d="M45 -2T45 26L111 664Q113 683 122 691T151 700H480Q492 700 497 692T502 667V656Q500 589 469 589H234L215 413H442Q454 413 459 405T465 380V370Q463 302 432 302H204L175 26Q172 -2 120 -2H95Q45 -2 45 26Z" />
<glyph unicode="G" glyph-name="G" horiz-adv-x="672" d="M585 379T592 373T600 350L570 69Q565 26 493 10T333 -7Q188 -7 117 62T45 276Q45 491 141 599T417 707Q462 707 508 698T583 674T613 642Q613 631 602 611T575 575T551 559Q548 559 527 569T475 588T401
596Q292 596 236 519T180 294Q180 104 347 104Q399 104 444 113L461 268H363Q351 268 346 276T340 301L341 323Q341 348 349 363T373 379H567Q585 379 592 373Z" />
<glyph unicode="H" glyph-name="H" horiz-adv-x="733" d="M49 -2T49 26L117 674Q120 702 172 702H198Q248 702 248 674L220 414H524L551 674Q554 702 606 702H632Q682 702 682 674L614 26Q611 -2 559 -2H533Q483 -2 483 26L512 302H208L180 26Q177 -2 125 -2H99Q49
-2 49 26Z" />
<glyph unicode="I" glyph-name="I" horiz-adv-x="282" d="M42 -2T42 26L109 674Q112 702 165 702H190Q240 702 240 674L172 26Q169 -2 117 -2H92Q42 -2 42 26Z" />
<glyph unicode="J" glyph-name="J" horiz-adv-x="402" d="M-15 -7T-15 32Q-15 79 -10 97T3 115Q8 115 23 111T67 106Q121 106 147 132T181 218L229 674Q232 702 284 702H310Q360 702 360 674L310 203Q299 103 243 48T78 -7Q-15 -7 -15 32Z" />
<glyph unicode="K" glyph-name="K" horiz-adv-x="576" d="M61 -2T50 5T38 26L106 674Q109 702 161 702H187Q214 702 225 695T237 674L207 392L211 391L441 685Q455 702 501 702H534Q557 702 569 699T581 689Q581 680 571 667L327 366L538 32Q545 21 545 15Q544
6 532 2T492 -2H453Q428 -2 415 1T396 15L204 325H200L169 26Q166 -2 114 -2H88Q61 -2 50 5Z" />
<glyph unicode="L" glyph-name="L" horiz-adv-x="484" d="M55 0T48 7T41 31L108 674Q111 702 164 702H189Q239 702 239 674L180 111H428Q450 111 450 78V72Q450 0 417 0H74Q55 0 48 7Z" />
<glyph unicode="M" glyph-name="M" horiz-adv-x="843" d="M368 177T359 194L241 448Q229 474 224 488L220 487Q219 469 215 438L172 26Q169 -2 117 -2H96Q69 -2 58 5T46 26L113 674Q116 702 169 702H216Q259 702 269 678L407 380Q417 359 424 337Q433 355 449
378L651 678Q667 702 708 702H753Q780 702 791 695T803 674L735 26Q732 -2 680 -2H659Q632 -2 621 5T609 26L651 434Q654 468 657 484L652 485Q638 462 631 451L459 194Q445 177 423 177H390Q368 177 359 194Z" />
<glyph unicode="N" glyph-name="N" horiz-adv-x="719" d="M64 -2T53 5T41 26L109 674Q112 702 164 702H199Q221 702 233 697T255 678L473 284Q491 250 499 224L506 225Q506 260 510 292L550 674Q553 702 606 702H627Q654 702 665 695T677 674L609 26Q606 -2 554
-2H522Q501 -2 489 2T469 20L246 421Q225 458 219 481L213 480Q213 453 208 413L168 26Q165 -2 112 -2H91Q64 -2 53 5Z" />
<glyph unicode="O" glyph-name="O" horiz-adv-x="731" d="M190 -7T118 67T45 283Q45 396 81 492T198 647T403 707Q540 707 612 633T685 416Q685 212 592 103T328 -7Q190 -7 118 67ZM437 104T494 182T551 404Q551 498 511 547T391 596Q293 596 237 518T180 295Q180
201 220 153T339 104Q437 104 494 182Z" />
<glyph unicode="P" glyph-name="P" horiz-adv-x="570" d="M63 -2T52 5T40 26L107 664Q109 683 118 691T147 700H358Q443 700 507 663T571 523Q571 423 527 368T426 294T324 275H196L170 26Q167 -2 114 -2H90Q63 -2 52 5ZM325 387Q366 387 401 413T436 505Q436
551 409 570T342 589H229L207 387H325Z" />
<glyph unicode="Q" glyph-name="Q" horiz-adv-x="731" d="M616 -160T374 -59Q225 3 201 12Q50 73 48 283Q48 405 87 500T207 651T406 706Q544 706 616 632T688 415Q688 264 632 162T477 22L476 18L637 -40Q646 -43 649 -48T653 -64Q653 -122 645 -141T626 -160Q616
-160 374 -59ZM440 100T497 179T554 403Q554 497 513 546T394 596Q297 596 240 517T183 294Q183 199 223 150T342 100Q440 100 497 179Z" />
<glyph unicode="R" glyph-name="R" horiz-adv-x="610" d="M63 -2T52 5T40 26L107 664Q109 683 118 691T147 700H332Q561 700 561 541Q561 473 525 425T426 353V349Q447 341 464 314T493 245L556 34L558 18Q556 -2 503 -2H473Q430 -2 423 17L366 213Q352 254 329
270T255 286H198L170 26Q167 -2 115 -2H91Q63 -2 52 5ZM318 399Q361 399 393 432T425 510Q425 548 401 568T331 589H230L210 399H318Z" />
<glyph unicode="S" glyph-name="S" horiz-adv-x="500" d="M174 -7T127 2T53 29Q30 44 30 65Q30 121 36 140T52 159Q55 159 75 148Q102 129 134 117T209 104Q256 104 291 128T326 200Q326 233 301 253T220 297L189 311Q126 339 91 376T56 486Q56 561 91 610T183
683T309 707Q354 707 394 697T457 670Q475 658 475 642Q475 625 455 596T421 566Q417 566 408 570T392 578Q349 596 305 596Q247 596 219 572T191 512Q191 476 216 457T293 415L317 404Q384 375 422 338T461 230Q461 147 426 94T336 17T214 -7Q174 -7 127 2Z" />
<glyph unicode="T" glyph-name="T" horiz-adv-x="549" d="M174 -2T174 26L234 589H62Q50 589 45 597T39 622V637Q39 663 47 681T72 700H546Q568 700 568 667V658Q568 589 535 589H364L305 26Q302 -2 250 -2H224Q174 -2 174 26Z" />
<glyph unicode="U" glyph-name="U" horiz-adv-x="712" d="M239 -7T181 19T90 94T58 208Q58 226 59 235L104 674Q106 702 160 702H185Q212 702 223 695T234 674L189 245Q188 239 188 227Q188 168 226 136T328 104Q396 104 443 141T497 236L542 674Q545 702 598
702H622Q649 702 660 695T671 674L625 230Q614 118 533 56T316 -7Q239 -7 181 19Z" />
<glyph unicode="V" glyph-name="V" horiz-adv-x="617" d="M204 -2T200 17L48 657Q45 669 45 676Q45 702 101 702H126Q170 702 175 678L280 209L286 167H289L305 210L510 678Q515 690 529 696T564 702H586Q637 702 637 681Q637 673 633 665L345 17Q336 -2 293 -2H248Q204
-2 200 17Z" />
<glyph unicode="W" glyph-name="W" horiz-adv-x="882" d="M134 -2T133 17L40 651L37 675Q37 689 49 695T94 702H114Q165 702 169 676L222 293L236 167Q250 210 261 240L279 294L416 682Q420 693 432 697T467 702H497Q542 702 545 682L599 292L614 163Q628 207
658 295L791 676Q800 702 851 702H860Q913 702 913 680Q913 674 908 660L675 17Q671 8 657 3T624 -2H562Q542 -2 529 3T514 17L463 373L453 476L420 371L293 17Q289 8 275 3T242 -2H181Q134 -2 133 17Z" />
<glyph unicode="X" glyph-name="X" horiz-adv-x="611" d="M2 -2T-12 1T-26 17Q-26 27 -15 39L231 365L73 661Q67 673 67 680Q67 693 81 697T125 702H156Q177 702 189 698T208 684L318 478L475 685Q483 695 496 698T531 702H558Q583 702 597 699T612 683Q612 676
602 661L378 366L552 39Q558 25 558 21Q558 8 543 3T501 -2H470Q447 -2 435 2T418 16L291 252L111 15Q103 5 90 2T55 -2H28Q2 -2 -12 1Z" />
<glyph unicode="Y" glyph-name="Y" horiz-adv-x="559" d="M204 -2T193 5T182 26L215 344L46 661Q40 672 40 680Q40 693 54 697T97 702H129Q172 702 181 684L295 459L458 685Q470 702 514 702H540Q592 702 592 683Q592 675 581 661L345 341L312 26Q309 -2 256 -2H232Q204
-2 193 5Z" />
<glyph unicode="Z" glyph-name="Z" horiz-adv-x="616" d="M20 0T12 26T3 73Q3 85 7 89L419 589H111Q99 589 94 597T88 622V640Q88 663 96 681T122 700H577Q587 700 595 675T603 627Q603 616 600 611L186 111H523Q535 111 540 103T546 78V66Q546 38 538 19T512
0H30Q20 0 12 26Z" />
<glyph unicode="[" glyph-name="bracketleft" horiz-adv-x="291" d="M44 -138T37 -131T30 -107Q30 -98 74 315L118 732Q120 751 129 759T158 768H283Q306 768 306 742V740Q306 719 299 702T274 685H213L135 -55H196Q220 -55 220 -81V-83Q220 -103 213 -120T187
-138H63Q44 -138 37 -131Z" />
<glyph unicode="\" glyph-name="backslash" horiz-adv-x="361" d="M228 -22T222 5L38 676L36 684Q36 702 71 702H95Q134 702 140 676L324 5Q325 2 325 -3Q325 -22 291 -22H267Q228 -22 222 5Z" />
<glyph unicode="]" glyph-name="bracketright" horiz-adv-x="291" d="M0 -138T0 -112V-110Q0 -89 7 -72T32 -55H93L170 685H109Q86 685 86 711V713Q86 733 93 750T118 768H242Q261 768 268 762T275 737Q275 719 187 -102Q185 -121 176 -129T147 -138H23Q0 -138 0 -112Z" />
<glyph unicode="^" glyph-name="asciicircum" horiz-adv-x="450" d="M415 345T415 336Q412 319 382 319H367Q332 319 325 346L255 572L138 346Q122 319 90 319H75Q47 319 47 334Q47 342 52 351L212 659Q220 673 229 679T254 685H281Q309 685 318 659L412 351Q415
345 415 336Z" />
<glyph unicode="_" glyph-name="underscore" horiz-adv-x="534" d="M-49 -141T-54 -135T-60 -112V-111Q-60 -89 -53 -73T-28 -56H494Q518 -56 518 -85V-86Q518 -107 511 -124T486 -141H-37Q-49 -141 -54 -135Z" />
<glyph unicode="`" glyph-name="grave" horiz-adv-x="256" d="M174 579T156 601L115 649Q88 681 76 697T64 719Q64 727 77 730T121 733Q182 733 195 707L206 686Q227 646 238 622T250 592Q250 585 243 582T221 579Q174 579 156 601Z" />
<glyph unicode="a" glyph-name="a" horiz-adv-x="545" d="M527 99T527 89Q527 74 521 38Q517 16 493 5T443 -7Q349 -7 336 78Q312 38 275 15T194 -8Q124 -8 77 46T30 209Q30 303 59 376T140 489T260 530Q299 530 330 514T383 476Q390 497 394 506T409 519T441
524H451Q497 524 497 501L490 432Q459 142 459 129Q459 108 467 101T491 93Q499 93 507 96T519 99Q527 99 527 89ZM356 362T365 397Q327 429 285 429Q220 429 189 373T157 217Q157 96 236 96Q265 96 293 120T340 194L353 329Q356 362 365 397Z" />
<glyph unicode="b" glyph-name="b" horiz-adv-x="569" d="M414 530T466 477T519 315Q519 221 488 148T400 34T269 -7Q201 -7 143 46Q135 20 125 10T87 -2H76Q30 -2 30 22L105 725Q108 753 160 753H179Q205 753 217 746T229 726L201 456Q225 492 260 511T335 530Q414
530 466 477ZM320 94T356 151T392 307Q392 370 367 398T293 427Q264 427 236 403T188 331L174 199Q170 167 163 124Q199 94 244 94Q320 94 356 151Z" />
<glyph unicode="c" glyph-name="c" horiz-adv-x="485" d="M148 -7T93 44T38 204Q38 348 103 439T312 530Q368 530 415 514T464 467Q464 459 456 443T436 414T415 401Q411 401 405 404T396 410Q380 419 361 424T312 430Q242 430 205 378T167 216Q167 153 193 123T276
93Q313 93 340 101T395 122Q411 130 417 130Q421 130 422 128T423 117Q423 54 407 35Q387 13 344 3T261 -7Q148 -7 93 44Z" />
<glyph unicode="d" glyph-name="d" horiz-adv-x="565" d="M541 99T542 97T544 89Q544 74 538 38Q534 16 510 5T460 -7Q366 -7 353 79Q329 38 292 16T209 -7Q161 -7 121 16T56 87T31 209Q31 303 61 376T145 489T270 530Q338 530 388 488L414 725Q417 753 469 753H488Q514
753 526 746T538 726Q528 635 502 388T476 129Q476 109 484 101T508 93Q517 93 525 96T537 99Q541 99 542 97ZM379 400Q344 429 296 429Q227 429 193 372T159 217Q159 154 182 125T252 96Q281 96 309 121T358 195L379 400Z" />
<glyph unicode="e" glyph-name="e" horiz-adv-x="539" d="M497 296T428 252T262 207Q211 207 165 214Q166 146 197 120T285 93Q324 93 355 103T420 130Q435 139 440 139Q444 139 445 137T447 126Q447 117 445 95T440 61Q431 26 377 10T270 -7Q161 -7 100 46T38
208Q38 364 112 447T313 530Q382 530 423 507T480 453T497 390Q497 296 428 252ZM227 296Q287 296 330 316T374 375Q374 400 355 415T303 430Q197 430 171 296H227Z" />
<glyph unicode="f" glyph-name="f" horiz-adv-x="325" d="M77 -2T65 5T52 26L93 422H66Q43 422 43 455V459Q45 523 77 523H105L113 607Q119 684 161 721T268 759Q355 759 355 718Q355 704 344 678T322 652Q319 652 310 655T285 658Q263 658 252 646T238 605L229
523H299Q308 523 311 519T315 503V497Q315 474 299 448T261 422H218L177 26Q174 -2 122 -2H102Q77 -2 65 5Z" />
<glyph unicode="g" glyph-name="g" d="M512 525T512 501L470 95Q454 -66 394 -139T219 -212Q169 -212 128 -203T63 -177T39 -141Q39 -66 57 -66Q60 -66 81 -78T132 -101T200 -111Q264 -111 299 -68T342 65L343 76Q318 41 283 22T208 3Q134 3 85 55T36 212Q36 305
66 377T150 490T274 530Q342 530 399 478Q408 505 417 514T456 525H466Q512 525 512 501ZM374 372T380 399Q341 429 299 429Q229 429 196 373T163 220Q163 106 250 106Q279 106 307 131T356 205L369 324Q374 372 380 399Z" />
<glyph unicode="h" glyph-name="h" horiz-adv-x="565" d="M340 -7T340 109Q340 125 352 239L365 357Q368 390 352 408T303 426Q271 426 241 402T191 332L158 26Q155 -2 103 -2H84Q59 -2 47 5T34 25L107 725Q110 753 163 753H182Q208 753 220 746T232 726L203 452Q234
488 276 509T360 530Q492 530 492 402Q490 378 486 338T479 263Q466 146 466 129Q466 109 474 101T498 93Q506 93 514 96T526 99Q534 99 534 89Q534 74 528 38Q524 16 500 5T450 -7Q340 -7 340 109Z" />
<glyph unicode="i" glyph-name="i" horiz-adv-x="265" d="M119 598T106 605T92 630L101 695Q103 711 118 719T168 727Q201 727 214 719T227 695L220 630Q217 598 152 598Q119 598 106 605ZM41 -7T41 108Q41 108 45 154Q47 189 49 204L80 497Q83 525 136 525H155Q205
525 205 497Q199 442 183 291T167 129Q167 109 175 101T199 93Q207 93 215 96T227 99Q231 99 232 97T234 89Q234 68 229 38Q225 16 201 5T151 -7Q41 -7 41 108Z" />
<glyph unicode="j" glyph-name="j" horiz-adv-x="276" d="M135 599T122 607T108 631L117 697Q120 730 183 730Q216 730 229 722T243 697L236 631Q231 599 168 599Q135 599 122 607ZM-68 -212T-68 -172Q-68 -134 -64 -118T-53 -102Q-50 -102 -39 -106T-10 -111Q11
-111 22 -99T37 -57L95 497Q98 525 151 525H170Q195 525 207 518T220 497L161 -59Q153 -136 113 -174T10 -212Q-68 -212 -68 -172Z" />
<glyph unicode="k" glyph-name="k" horiz-adv-x="521" d="M497 505T485 491L306 285L464 32Q470 20 470 15Q470 6 458 2T416 -2H388Q342 -2 332 15L188 247H184L160 26Q157 -2 105 -2H86Q59 -2 48 5T36 26L109 725Q112 753 165 753H184Q211 753 222 746T234 725L190
310H194L365 508Q373 518 387 521T424 525H449Q472 525 484 522T497 512Q497 505 485 491Z" />
<glyph unicode="l" glyph-name="l" horiz-adv-x="297" d="M99 -7T74 20T48 101Q48 110 50 132L112 727Q114 741 125 747T161 754H193Q221 754 229 747T236 722L173 145Q172 138 172 127Q172 109 179 101T207 93Q215 93 223 96T235 99Q239 99 240 97T242 89Q242
74 236 38Q233 16 209 5T158 -7Q99 -7 74 20Z" />
<glyph unicode="m" glyph-name="m" horiz-adv-x="848" d="M815 99T816 97T818 89Q818 68 812 38Q809 16 785 5T735 -7Q680 -7 653 21T625 109Q625 125 640 264Q650 366 650 366Q650 426 588 426Q557 426 528 403T479 340L448 26Q445 -2 393 -2H373Q348 -2 335
6T323 25L358 364Q361 394 345 410T296 426Q266 426 237 403T187 335L156 26Q153 -2 101 -2H81Q56 -2 43 5T31 25L65 357Q71 407 71 439L70 487Q70 502 98 510T164 518Q180 518 187 496T194 445Q222 482 265 506T353 530Q462 530 481 442Q508 481 553 505T645 530Q777
530 777 402Q775 378 771 338T764 263Q751 146 751 129Q751 109 759 101T783 93Q791 93 799 96T811 99Q815 99 816 97Z" />
<glyph unicode="n" glyph-name="n" horiz-adv-x="557" d="M528 99T528 89Q528 74 522 38Q518 16 494 5T444 -7Q389 -7 362 21T334 109L336 138L338 164Q340 186 350 282Q359 359 359 366Q359 426 297 426Q265 426 234 401T183 329L152 26Q149 -2 97 -2H78Q53 -2
40 6T27 25L62 368Q68 424 68 439Q68 457 67 468T66 487Q66 502 94 510T160 518Q191 518 191 445Q221 483 265 506T354 530Q486 530 486 402Q484 378 480 338T473 263Q460 146 460 129Q460 109 468 101T492 93Q500 93 508 96T520 99Q528 99 528 89Z" />
<glyph unicode="o" glyph-name="o" horiz-adv-x="569" d="M146 -7T92 48T37 210Q37 348 102 439T308 530Q411 530 465 474T519 311Q519 159 448 76T251 -7Q146 -7 92 48ZM323 93T357 148T391 306Q391 369 368 399T296 430Q233 430 199 374T164 216Q164 93 260
93Q323 93 357 148Z" />
<glyph unicode="p" glyph-name="p" horiz-adv-x="573" d="M390 530T431 507T497 436T522 315Q522 221 492 148T406 34T280 -7Q218 -7 162 37L140 -178Q137 -207 84 -207H65Q40 -207 28 -199T15 -179L72 366Q77 421 77 439Q77 457 76 468T75 487Q75 502 103 510T169
518Q199 518 199 451V448Q223 487 260 508T341 530Q390 530 431 507ZM325 93T360 151T395 308Q395 368 370 397T299 427Q269 427 240 402T191 328L171 124Q209 93 254 93Q325 93 360 151Z" />
<glyph unicode="q" glyph-name="q" horiz-adv-x="566" d="M522 525T522 501L450 -178Q447 -207 395 -207H376Q326 -207 326 -179L351 67Q326 31 292 12T217 -7Q168 -7 127 16T61 87T36 209Q36 303 67 376T154 489T283 530Q352 530 409 478Q413 497 422 509Q434
524 465 525H476Q522 525 522 501ZM378 324L389 398Q354 429 308 429Q234 429 199 373T163 217Q163 155 188 126T259 96Q288 96 316 120T364 192L378 324Z" />
<glyph unicode="r" glyph-name="r" horiz-adv-x="366" d="M349 530T361 518T373 487Q373 465 360 437T337 408Q334 408 323 412T297 417Q268 417 241 394T195 327L164 26Q161 -2 109 -2H90Q65 -2 53 6T40 25L75 363Q80 403 80 439Q80 455 79 466T78 487Q78 502
106 510T172 518Q203 518 203 451V449Q256 530 325 530Q349 530 361 518Z" />
<glyph unicode="s" glyph-name="s" horiz-adv-x="413" d="M121 -7T73 6T24 57Q24 98 30 113T44 129Q46 129 64 119T106 101T157 93Q195 93 216 109T238 154Q238 173 227 185T202 204T153 224Q104 243 75 271T46 358Q46 440 99 485T237 530Q287 530 331 517T376
475Q376 460 359 435T330 409Q326 409 313 415T284 425T245 430Q212 430 194 418T175 382Q175 362 186 349T212 329T261 307Q311 287 338 260T366 178Q366 93 311 43T166 -7Q121 -7 73 6Z" />
<glyph unicode="t" glyph-name="t" horiz-adv-x="342" d="M134 -7T101 22T67 117Q67 133 80 255T98 422H67Q55 422 50 430T44 455Q44 523 77 523H108L119 622Q122 650 174 650H193Q243 650 243 622L233 523H301Q311 523 314 519T317 503Q317 477 304 450T264 422H222Q217
378 207 281T192 135Q192 93 229 93Q245 93 255 96T269 100Q277 100 277 89Q277 72 271 38Q267 15 243 4T190 -7Q134 -7 101 22Z" />
<glyph unicode="u" glyph-name="u" horiz-adv-x="557" d="M524 99T525 97T527 89Q527 68 521 38Q518 16 494 5T444 -7Q347 -7 336 81Q305 41 261 17T171 -7Q39 -7 39 121Q39 131 41 151L76 497Q79 525 131 525H151Q176 525 188 518T201 497L167 169Q166 164 166
155Q166 97 228 97Q260 97 291 121T341 193L373 497Q376 525 428 525H447Q497 525 497 497L476 299L469 231Q460 134 460 129Q460 109 468 101T492 93Q500 93 508 96T520 99Q524 99 525 97Z" />
<glyph unicode="v" glyph-name="v" horiz-adv-x="485" d="M147 -2T142 17L32 489L30 503Q32 525 87 525H111Q155 525 159 506L206 292Q214 255 222 197L227 164H232Q265 262 279 292L370 506Q378 525 422 525H438Q461 525 475 521T489 505Q489 497 485 488L276
17Q268 -2 224 -2H191Q147 -2 142 17Z" />
<glyph unicode="w" glyph-name="w" horiz-adv-x="747" d="M126 -2T123 17L47 468Q43 491 43 502Q45 525 100 525H119Q138 525 152 520T167 506L210 217L216 153H220L239 218L341 505Q348 525 392 525H412Q432 525 445 520T459 505L502 209L507 149H511L526 209L634
506Q640 525 688 525H693Q741 524 741 504Q741 499 738 488L564 17Q560 8 547 3T513 -2H470Q426 -2 422 17L382 298L379 343H376Q369 316 365 297L266 17Q262 8 248 3T214 -2H171Q126 -2 123 17Z" />
<glyph unicode="x" glyph-name="x" horiz-adv-x="485" d="M9 -2T-5 1T-20 16Q-20 24 -9 38L170 266L48 484Q41 497 41 506Q41 517 56 521T99 525H123Q145 525 157 522T176 507L237 395L249 370H254L270 394L358 508Q366 518 379 521T414 525H434Q459 525 473 522T488
507Q488 497 477 485L306 267L435 39Q442 26 442 18Q441 6 427 2T384 -2H360Q338 -2 326 1T307 16L234 149L227 165H224L213 149L110 15Q102 5 89 2T54 -2H34Q9 -2 -5 1Z" />
<glyph unicode="y" glyph-name="y" horiz-adv-x="481" d="M491 525T491 506Q491 497 487 488L176 -186Q166 -207 121 -207H105Q57 -207 57 -189Q57 -182 63 -170L153 11L35 484Q32 498 32 502Q32 525 89 525H112Q156 525 161 506L213 286Q221 251 231 180H235Q252
235 273 286L372 506Q380 525 424 525H441Q491 525 491 506Z" />
<glyph unicode="z" glyph-name="z" horiz-adv-x="489" d="M23 0T17 21T10 63Q10 77 14 81L301 422H88Q76 422 71 430T66 455V458Q66 486 73 504T99 523H451Q459 523 465 501T471 459Q471 446 467 442L180 101H412Q424 101 429 93T435 68V63Q435 36 427 18T402
0H31Q23 0 17 21Z" />
<glyph unicode="{" glyph-name="braceleft" horiz-adv-x="274" d="M100 -138T79 -114T58 -42Q58 -23 68 61Q69 73 74 117T79 185Q79 218 70 237T41 267Q29 274 23 281T17 303V305Q17 331 24 343T51 366Q80 379 93 406T112 484L130 652Q136 708 164 738T233 768H276Q300
768 300 742V740Q300 686 268 686H260Q245 686 237 675T227 641L210 468Q204 412 178 373T122 315Q145 301 162 270T179 192Q179 162 168 81Q158 -5 158 -25Q158 -56 182 -56H190Q213 -56 213 -81V-83Q213 -107 206 -122T181 -138H138Q100 -138 79 -114Z" />
<glyph unicode="|" glyph-name="bar" horiz-adv-x="250" d="M172 769T172 742V-112Q172 -139 132 -139H119Q78 -139 78 -112V742Q78 769 119 769H132Q172 769 172 742Z" />
<glyph unicode="}" glyph-name="braceright" horiz-adv-x="274" d="M-23 -138T-23 -112V-110Q-23 -56 9 -56H18Q32 -56 39 -45T49 -11L66 162Q71 218 97 257T154 315Q131 329 115 360T98 438Q98 461 108 549Q118 635 118 655Q118 686 95 686H87Q64 686 64 711V713Q64
768 95 768H138Q172 768 195 743T219 672Q219 653 209 569Q197 475 197 445Q197 413 206 395T232 366Q247 355 253 349T259 327V325Q259 299 252 287T226 264Q197 251 184 224T165 146L147 -22Q141 -78 113 -108T43 -138H0Q-23 -138 -23 -112Z" />
<glyph unicode="~" glyph-name="asciitilde" horiz-adv-x="547" d="M347 210T277 229Q270 231 238 238T183 246Q160 246 143 226Q140 223 135 218T125 211T115 208Q109 208 102 212L93 217Q81 223 81 234Q81 236 85 250Q98 283 123 301T184 319Q217 319 291 299Q298
297 330 290T385 282Q407 282 425 303Q427 305 433 310T443 318T452 320Q458 320 466 316L475 311Q487 305 487 294Q487 291 483 279Q470 246 445 228T384 210Q347 210 277 229Z" />
<glyph unicode="&#xa0;" glyph-name="uni00A0" horiz-adv-x="240" />
<glyph unicode="&#xa1;" glyph-name="exclamdown" horiz-adv-x="294" d="M132 386T121 393T109 414L118 497Q121 525 173 525H200Q227 525 238 518T250 497L241 414Q238 386 186 386H159Q132 386 121 393ZM25 -179T25 -153Q25 -137 77 113Q103 233 112 280Q115
295 125 301T159 308H170Q195 308 203 302T211 280L165 -151Q162 -179 110 -179H75Q25 -179 25 -153Z" />
<glyph unicode="&#xa2;" glyph-name="cent" horiz-adv-x="469" d="M369 426T334 429L299 94Q327 97 347 103T395 122Q411 130 417 130Q421 130 422 128T423 117Q423 54 407 35Q391 17 358 8T288 -6L283 -54Q281 -74 262 -74H250Q239 -74 236 -70T232 -54L237 -6Q137
-1 88 50T38 204Q38 343 99 433T294 530L298 566Q299 577 304 581T319 586H331Q341 586 345 582T349 566L345 528Q394 524 428 509T464 467Q464 459 456 443T436 414T415 401Q411 401 405 404T396 410Q369 426 334 429ZM167 161T186 132T248 95L283 428Q167 406
167 216Q167 161 186 132Z" />
<glyph unicode="&#xa3;" glyph-name="sterling" horiz-adv-x="491" d="M10 0T5 7T-1 32Q-1 39 1 54Q2 66 10 74T37 94Q61 110 75 125T92 169L108 321H65Q53 321 48 329T43 354V356Q43 422 76 422H119L127 501Q149 707 370 707Q407 707 439 700T472 670Q472 651
458 626T432 601Q428 601 410 605T369 610Q314 610 285 585T250 506L241 422H371Q380 422 383 418T387 403V401Q386 375 373 348T334 321H231L224 250Q218 188 202 155T161 101H405Q417 101 422 94T427 69L425 40Q424 21 416 11T394 0H27Q10 0 5 7Z" />
<glyph unicode="&#xa4;" glyph-name="currency" horiz-adv-x="534" d="M77 98T68 109L50 129Q41 140 41 148Q41 161 55 175L80 197Q61 235 61 278Q61 352 104 407L80 432Q71 445 71 453Q71 466 84 478L105 498Q118 509 129 509Q141 509 152 497L176 471Q228 500
281 500Q337 500 381 470L411 498Q424 509 436 509Q447 509 457 499L475 479Q484 469 484 459Q484 445 470 432L440 405Q460 367 460 322Q460 253 419 199L441 175Q450 165 450 153Q450 141 438 129L416 109Q405 98 391 98Q380 98 369 109L348 133Q297 102 240
102Q182 102 138 132L113 109Q102 98 88 98Q77 98 68 109ZM279 197T306 212T349 254T365 312Q365 352 338 378T271 405Q224 405 190 371T156 289Q156 250 182 224T249 197Q279 197 306 212Z" />
<glyph unicode="&#xa5;" glyph-name="yen" horiz-adv-x="559" d="M592 675T581 661L398 413H497Q519 413 519 389V384Q516 341 487 341H345L337 266H481Q503 266 503 242V237Q500 194 471 194H330L312 26Q309 -2 256 -2H232Q204 -2 193 5T182 26L199 194H51Q29
194 29 218V225Q29 241 36 253T60 266H207L215 341H67Q55 341 50 347T44 365V371Q47 413 76 413H178L46 661Q40 672 40 680Q40 693 54 697T97 702H129Q172 702 181 684L295 459L458 685Q470 702 514 702H540Q592 702 592 683Q592 675 581 661Z" />
<glyph unicode="&#xa6;" glyph-name="brokenbar" horiz-adv-x="250" d="M200 770T208 763T217 742Q217 744 201 586L183 417Q180 388 139 388H126Q88 388 88 414Q88 430 118 693L123 742Q125 770 166 770H179Q200 770 208 763ZM145 241T153 234T161 213Q161 199
145 60L127 -112Q124 -140 84 -140H71Q50 -140 42 -133T33 -112Q33 -103 50 50L67 213Q69 241 111 241H124Q145 241 153 234Z" />
<glyph unicode="&#xa7;" glyph-name="section" horiz-adv-x="429" d="M127 -7T86 4T44 45Q44 89 50 105T63 122Q66 122 83 114T120 99T163 93Q196 93 214 105T232 139Q232 158 217 168T168 192L148 200Q99 220 71 248T43 332Q43 372 58 406T99 464Q70 491 70 539Q70
618 124 662T262 707Q312 707 354 694T397 651Q397 637 380 612T350 586Q347 586 325 596T267 607Q233 607 216 595T199 562Q199 543 215 532T265 508L295 496Q338 477 362 450T387 370Q387 290 331 237Q360 206 360 162Q360 82 306 38T169 -7Q127 -7 86 4ZM271
303T271 345Q271 375 251 390T191 418Q177 408 168 392T159 355Q159 326 179 311T239 283Q271 303 271 345Z" />
<glyph unicode="&#xa8;" glyph-name="dieresis" horiz-adv-x="256" d="M43 589T32 595T20 617L27 674Q30 702 84 702Q111 702 122 695T134 674L127 617Q124 589 71 589Q43 589 32 595ZM209 589T198 595T187 617L194 674Q196 702 250 702Q278 702 289 695T301 674L294
617Q291 589 237 589Q209 589 198 595Z" />
<glyph unicode="&#xa9;" glyph-name="copyright" horiz-adv-x="739" d="M271 -8T189 40T58 170T10 351Q10 448 58 530T188 660T368 708Q466 708 548 660T679 530T727 351Q727 253 679 171T549 40T368 -8Q271 -8 189 40ZM450 51T519 91T628 200T669 351Q669 432
629 500T519 609T368 650Q287 650 218 610T109 501T68 351Q68 269 108 201T218 92T368 51Q450 51 519 91ZM287 146T242 196T196 351Q196 555 384 555Q426 555 463 544T500 517Q500 506 490 488T470 470Q468 470 447 480T384 491Q326 491 299 457T271 351Q271 209
382 209Q423 209 449 221T478 234Q487 234 496 217T506 191Q506 172 466 159T382 146Q287 146 242 196Z" />
<glyph unicode="&#xaa;" glyph-name="ordfeminine" horiz-adv-x="313" d="M91 438T70 469T49 546Q49 557 51 577Q60 641 91 674T168 708Q192 708 206 701T235 682Q240 696 245 700T267 705H277Q305 705 305 692L302 659L299 636Q286 520 285 508Q285 497 293 497H303Q309
497 309 483Q309 463 296 451T258 439Q217 439 212 477Q183 438 137 438Q91 438 70 469ZM180 499T192 507T212 527L221 606Q222 617 225 640Q211 648 186 648Q160 648 146 632T127 576Q125 556 125 547Q125 499 165 499Q180 499 192 507Z" />
<glyph unicode="&#xab;" glyph-name="guillemotleft" horiz-adv-x="471" d="M228 116Q234 107 234 98Q234 85 215 68T179 51Q165 51 156 66L44 220Q33 234 33 250Q33 265 37 275T51 296L196 450Q209 464 223 464Q235 464 252 451T269 423Q269 413 257 399L133
258L228 116ZM458 414T447 399L322 258L417 116Q423 107 423 98Q423 85 404 68T368 51Q354 51 345 66L233 220Q222 234 222 250Q222 265 226 275T241 296L385 450Q398 464 412 464Q424 464 441 451T458 423Q458 414 447 399Z" />
<glyph unicode="&#xac;" glyph-name="logicalnot" horiz-adv-x="560" d="M440 74T433 81T425 102L441 250H63Q37 250 37 282V286Q37 310 45 327T73 345H504Q523 345 530 337T537 309L515 102Q512 74 476 74H459Q440 74 433 81Z" />
<glyph unicode="&#xad;" glyph-name="uni00AD" horiz-adv-x="320" d="M31 218T31 249V250Q31 273 37 292T64 312H264Q287 312 287 282V280Q287 258 281 238T254 218H54Q31 218 31 249Z" />
<glyph unicode="&#xae;" glyph-name="registered" horiz-adv-x="739" d="M271 -7T189 41T58 171T10 351Q10 448 58 530T188 660T368 708Q466 708 548 660T679 530T727 351Q727 254 679 172T549 41T368 -7Q271 -7 189 41ZM450 51T519 91T628 201T669 351Q669 433
629 501T519 610T368 650Q287 650 218 610T109 502T68 351Q68 270 108 201T218 92T368 51Q450 51 519 91ZM244 152T244 168V531Q244 552 264 552H370Q441 552 475 526T510 447Q510 414 492 391T443 354V350Q468 340 489 293L536 172Q539 166 539 162Q539 152 509
152H492Q467 152 463 163L418 274Q408 298 394 307T351 316H318V168Q318 152 287 152H274Q244 152 244 168ZM380 380Q402 380 418 396T434 436Q434 461 419 475T376 489H318V380H380Z" />
<glyph unicode="&#xaf;" glyph-name="overscore" horiz-adv-x="255" d="M31 602T26 609T20 631V640Q23 689 52 689H272Q295 689 295 660V653Q294 633 287 618T262 602H43Q31 602 26 609Z" />
<glyph unicode="&#xb0;" glyph-name="degree" horiz-adv-x="345" d="M134 442T100 476T66 561Q66 600 84 633T136 687T213 707Q264 707 298 673T333 588Q333 548 314 515T262 462T186 442Q134 442 100 476ZM227 498T250 522T273 583Q273 612 255 631T208 651Q172
651 149 626T125 566Q125 537 144 518T191 498Q227 498 250 522Z" />
<glyph unicode="&#xb1;" glyph-name="plusminus" horiz-adv-x="560" d="M339 600T347 593T356 570L339 411H498Q512 411 518 403T524 378Q524 355 517 337T488 318H330L313 160Q310 130 267 130H256Q234 130 225 137T216 160L233 318H75Q61 318 55 325T49 349Q49
371 57 391T85 411H242L259 570Q262 600 305 600H316Q339 600 347 593ZM494 95T494 64Q494 41 486 21T458 0H39Q24 0 18 7T12 31Q12 54 20 74T48 95H468Q494 95 494 64Z" />
<glyph unicode="&#xb2;" glyph-name="uni00B2" horiz-adv-x="320" d="M51 298T47 313T42 340Q42 346 43 349L213 534Q245 569 245 602Q245 623 230 635T189 647Q169 647 155 642T129 629T112 621Q103 621 96 632T89 654Q89 677 126 691T201 705Q255 705 286 679T318
611Q318 579 305 553T255 486L135 356H283Q296 356 296 337V334Q295 317 291 308T276 298H56Q51 298 47 313Z" />
<glyph unicode="&#xb3;" glyph-name="uni00B3" horiz-adv-x="320" d="M113 289T80 296T46 323Q46 349 49 359T58 370Q62 369 83 359T142 348Q174 348 195 367T217 425Q217 453 200 466T148 480H131Q117 480 117 500V501Q117 539 137 539H150Q185 539 204 559T224
605Q224 624 212 636T173 649Q140 649 120 640T97 630Q90 630 83 644T75 668Q75 686 111 697T189 708Q241 708 270 685T299 618Q299 584 281 559T233 521V518Q260 508 276 485T292 428Q292 362 249 326T146 289Q113 289 80 296Z" />
<glyph unicode="&#xb4;" glyph-name="acute" horiz-adv-x="256" d="M66 579T60 581T54 590Q54 595 61 607T83 639Q90 649 101 665T128 707Q146 733 208 733Q262 733 262 721Q262 714 255 707T216 666Q200 651 150 601Q128 579 81 579Q66 579 60 581Z" />
<glyph unicode="&#xb5;" glyph-name="uni00B5" horiz-adv-x="566" d="M548 99T549 97T551 89Q551 40 533 17T467 -7Q372 -7 360 80Q329 40 285 17T194 -7Q179 -7 172 -6L153 -178Q150 -207 98 -207H79Q54 -207 42 -199T29 -179L100 497Q103 525 155 525H174Q224
525 224 497L210 358Q190 158 190 156Q190 97 252 97Q284 97 314 121T365 193L396 497Q399 525 452 525H471Q519 525 521 497Q522 488 500 297Q494 241 489 195T483 129Q483 109 491 101T516 93Q524 93 532 96T544 99Q548 99 549 97Z" />
<glyph unicode="&#xb6;" glyph-name="paragraph" horiz-adv-x="515" d="M206 -173T203 -168T199 -151L241 247Q189 253 148 281T84 353T61 450Q61 527 95 583T188 670T313 700H526Q537 700 541 696T544 680L542 658Q541 638 520 638H484L401 -151Q400 -161 394
-167T379 -173H357Q346 -173 343 -168T339 -151L422 638H344L261 -151Q260 -161 254 -167T239 -173H217Q206 -173 203 -168Z" />
<glyph unicode="&#xb7;" glyph-name="middot" horiz-adv-x="267" d="M109 296T93 312T77 351Q77 380 96 401T147 423Q172 423 188 407T204 366Q204 337 184 317T134 296Q109 296 93 312Z" />
<glyph unicode="&#xb8;" glyph-name="cedilla" horiz-adv-x="256" d="M230 -43T253 -60T276 -110Q276 -163 241 -187T148 -211Q113 -211 80 -201T47 -163Q47 -121 60 -121Q63 -121 78 -128T109 -141T145 -147Q183 -147 183 -122Q183 -112 177 -107T156 -95Q143
-89 137 -85T131 -72Q131 -66 162 6H220L202 -40Q230 -43 253 -60Z" />
<glyph unicode="&#xb9;" glyph-name="uni00B9" horiz-adv-x="300" d="M141 294T141 311L176 633L97 619Q84 619 84 650Q84 662 87 668T100 676L233 703Q241 703 247 699T254 690L214 311Q212 294 182 294H170Q141 294 141 311Z" />
<glyph unicode="&#xba;" glyph-name="ordmasculine" horiz-adv-x="337" d="M104 441T76 467T48 548Q48 622 84 664T182 707Q231 707 258 681T286 600Q286 518 250 480T154 441Q104 441 76 467ZM189 491T206 517T223 597Q223 657 176 657Q146 657 129 631T111 551Q111
491 159 491Q189 491 206 517Z" />
<glyph unicode="&#xbb;" glyph-name="guillemotright" horiz-adv-x="471" d="M265 250T261 240T246 219L102 65Q89 51 75 51Q63 51 46 64T29 92Q29 101 40 116L165 257L70 399Q64 408 64 417Q64 430 83 447T119 464Q133 464 142 449L254 295Q265 281 265 265Q265
250 261 240ZM454 281T454 265Q454 250 450 240T436 219L291 65Q278 51 264 51Q252 51 235 64T218 92Q218 102 230 116L354 257L259 399Q253 408 253 417Q253 430 272 447T308 464Q322 464 331 449L443 295Q454 281 454 265Z" />
<glyph unicode="&#xbc;" glyph-name="onequarter" horiz-adv-x="671" d="M141 294T141 311L176 633L97 619Q84 619 84 650Q84 662 87 668T100 676L233 703Q241 703 247 699T254 690L214 311Q212 294 182 294H170Q141 294 141 311ZM68 -1T68 7Q68 15 74 22L519
679Q534 701 561 701H577Q594 701 594 693Q594 686 587 679L142 22Q127 -1 101 -1H85Q68 -1 68 7ZM503 -2T497 2T491 14L499 87H337Q331 87 327 101T323 129Q323 138 324 139L532 400Q540 410 562 410H576Q591 410 597 406T603 393L578 146H606Q620 146 620 127V125Q620
87 600 87H571L564 14Q561 -2 533 -2H518Q503 -2 497 2ZM505 146L516 251Q517 267 521 299L519 300L400 146H505Z" />
<glyph unicode="&#xbd;" glyph-name="onehalf" horiz-adv-x="728" d="M141 294T141 311L176 633L97 619Q84 619 84 650Q84 662 87 668T100 676L233 703Q241 703 247 699T254 690L214 311Q212 294 182 294H170Q141 294 141 311ZM70 -1T70 7Q70 15 76 22L521 679Q536
701 563 701H579Q596 701 596 693Q596 686 589 679L144 22Q129 -1 103 -1H87Q70 -1 70 7ZM391 0T387 15T382 43Q382 49 383 51L555 239Q570 255 579 273T588 308Q588 330 573 342T532 354Q512 354 498 349T470 335T453 327Q444 327 437 338T429 361Q429 384 467
398T544 413Q598 413 630 386T662 318Q662 286 649 259T598 191L477 59H626Q640 59 640 40V37Q638 0 620 0H397Q391 0 387 15Z" />
<glyph unicode="&#xbe;" glyph-name="threequarters" horiz-adv-x="738" d="M113 289T80 296T46 323Q46 349 49 359T58 370Q62 369 83 359T142 348Q174 348 195 367T217 425Q217 453 200 466T148 480H131Q117 480 117 500V501Q117 539 137 539H150Q185 539 204
559T224 605Q224 624 212 636T173 649Q140 649 120 640T97 630Q90 630 83 644T75 668Q75 686 111 697T189 708Q241 708 270 685T299 618Q299 584 281 559T233 521V518Q260 508 276 485T292 428Q292 362 249 326T146 289Q113 289 80 296ZM117 -1T117 7Q117 13 123
22L569 679Q584 701 611 701H626Q644 701 644 693Q644 688 637 679L192 22Q183 9 174 4T150 -1H135Q117 -1 117 7ZM552 -2T546 2T540 14L548 87H386Q380 87 376 101T372 129Q372 138 373 139L581 400Q589 410 611 410H625Q640 410 646 406T652 393L627 146H655Q669
146 669 127V125Q669 87 649 87H620L613 14Q610 -2 582 -2H567Q552 -2 546 2ZM554 146L565 251Q566 267 570 299L568 300L449 146H554Z" />
<glyph unicode="&#xbf;" glyph-name="questiondown" horiz-adv-x="425" d="M349 525T359 519T370 497L362 414Q359 386 306 386H279Q252 386 241 393T230 414L238 497Q241 525 294 525H321Q349 525 359 519ZM317 308T325 302T334 282Q334 212 235 121Q183 73 161
47T139 -10Q139 -73 225 -73Q251 -73 273 -67T321 -49Q326 -47 333 -44T345 -41Q359 -41 374 -67T389 -110Q389 -145 328 -164T199 -184Q107 -184 56 -142T4 -30Q4 13 20 47T61 107T124 164Q171 204 194 228T226 284Q231 298 241 303T274 308H294Q317 308 325 302Z"
/>
<glyph unicode="&#xc0;" glyph-name="Agrave" horiz-adv-x="613" d="M-32 -2T-32 17Q-32 23 -26 35L270 683Q278 702 322 702H366Q410 702 415 683L577 34Q579 28 579 20Q579 10 567 4T529 -2H498Q454 -2 449 17L415 154H155L93 17Q84 -2 47 -2H20Q-32 -2 -32
17ZM389 266L337 488Q330 516 330 550H326Q315 512 305 488L204 266H389ZM327 756T309 778L268 826Q241 858 229 874T217 896Q217 904 230 907T274 910Q335 910 348 884L359 863Q380 823 391 799T403 769Q403 762 396 759T374 756Q327 756 309 778Z" />
<glyph unicode="&#xc1;" glyph-name="Aacute" horiz-adv-x="613" d="M-32 -2T-32 17Q-32 23 -26 35L270 683Q278 702 322 702H366Q410 702 415 683L577 34Q579 28 579 20Q579 10 567 4T529 -2H498Q454 -2 449 17L415 154H155L93 17Q84 -2 47 -2H20Q-32 -2 -32
17ZM389 266L337 488Q330 516 330 550H326Q315 512 305 488L204 266H389ZM306 756T300 758T294 767Q294 772 301 784T323 816Q330 826 341 842T368 884Q386 910 448 910Q502 910 502 898Q502 891 495 884T456 843Q440 828 390 778Q368 756 321 756Q306 756 300
758Z" />
<glyph unicode="&#xc2;" glyph-name="Acircumflex" horiz-adv-x="613" d="M-32 -2T-32 17Q-32 23 -26 35L270 683Q278 702 322 702H366Q410 702 415 683L577 34Q579 28 579 20Q579 10 567 4T529 -2H498Q454 -2 449 17L415 154H155L93 17Q84 -2 47 -2H20Q-32 -2
-32 17ZM389 266L337 488Q330 516 330 550H326Q315 512 305 488L204 266H389ZM214 750T214 761Q214 768 221 778L293 875Q301 887 315 891T350 895H367Q388 895 401 891T420 875L472 778Q475 771 475 764Q475 758 470 754T454 750H439Q402 750 387 770L351 823L306
771Q295 759 282 755T249 750H233Q214 750 214 761Z" />
<glyph unicode="&#xc3;" glyph-name="Atilde" horiz-adv-x="613" d="M-32 -2T-32 17Q-32 23 -26 35L270 683Q278 702 322 702H366Q410 702 415 683L577 34Q579 28 579 20Q579 10 567 4T529 -2H498Q454 -2 449 17L415 154H155L93 17Q84 -2 47 -2H20Q-32 -2 -32
17ZM389 266L337 488Q330 516 330 550H326Q315 512 305 488L204 266H389ZM195 785Q188 797 188 805Q188 816 198 824Q250 865 302 865Q325 865 340 862T373 850Q406 837 424 837Q451 837 479 855Q489 861 497 861Q512 861 521 849L523 846Q529 836 529 828Q529
816 515 802Q495 783 467 771T409 759Q386 759 371 762T337 773Q333 774 318 780T287 787Q272 787 262 783T236 771Q228 767 219 767Q214 767 208 771T197 782L195 785Z" />
<glyph unicode="&#xc4;" glyph-name="Adieresis" horiz-adv-x="613" d="M-32 -2T-32 17Q-32 23 -26 35L270 683Q278 702 322 702H366Q410 702 415 683L577 34Q579 28 579 20Q579 10 567 4T529 -2H498Q454 -2 449 17L415 154H155L93 17Q84 -2 47 -2H20Q-32 -2 -32
17ZM389 266L337 488Q330 516 330 550H326Q315 512 305 488L204 266H389ZM239 766T228 772T216 794L223 851Q226 879 280 879Q307 879 318 872T330 851L323 794Q320 766 267 766Q239 766 228 772ZM405 766T394 772T383 794L390 851Q392 879 446 879Q474 879 485
872T497 851L490 794Q487 766 433 766Q405 766 394 772Z" />
<glyph unicode="&#xc5;" glyph-name="Aring" horiz-adv-x="613" d="M-32 -2T-32 17Q-32 23 -26 35L270 683Q278 702 322 702H366Q410 702 415 683L577 34Q579 28 579 20Q579 10 567 4T529 -2H498Q454 -2 449 17L415 154H155L93 17Q84 -2 47 -2H20Q-32 -2 -32 17ZM389
266L337 488Q330 516 330 550H326Q315 512 305 488L204 266H389ZM306 732T282 756T258 816Q258 860 287 890T362 920Q399 920 423 896T447 836Q447 792 418 762T343 732Q306 732 282 756ZM367 784T380 797T394 829Q394 845 384 856T357 867Q339 867 325 854T311
821Q311 805 321 795T348 784Q367 784 380 797Z" />
<glyph unicode="&#xc6;" glyph-name="AE" horiz-adv-x="915" d="M-39 -2T-39 17Q-39 25 -32 35L355 673Q364 687 374 693T401 700H861Q873 700 878 692T884 667V662Q883 628 876 609T851 589H514L531 414H803Q814 414 819 406T825 380V374Q825 341 818 322T792
303H542L561 111H800Q812 111 817 103T823 78V72Q822 38 815 19T790 0H471Q455 0 448 7T439 30L427 154H165L83 17Q71 -2 38 -2H13Q-39 -2 -39 17ZM417 266L397 490L402 564H399L366 490L232 266H417Z" />
<glyph unicode="&#xc7;" glyph-name="Ccedilla" horiz-adv-x="619" d="M286 596T230 517T174 294Q174 104 345 104Q432 104 520 148Q536 156 540 156Q550 156 550 143Q550 124 545 91T529 44Q508 19 450 7T337 -7L324 -40Q352 -43 375 -60T398 -110Q398 -163 363
-187T270 -211Q235 -211 202 -201T169 -163Q169 -121 182 -121Q185 -121 200 -128T231 -141T267 -147Q305 -147 305 -122Q305 -112 299 -107T278 -95Q265 -89 259 -85T253 -72Q253 -67 279 -5Q158 7 100 75T41 275Q41 467 128 587T413 707Q459 707 504 699T578
675Q608 659 608 642Q608 631 597 611T571 575T546 559Q543 559 522 569T470 588T397 596Q286 596 230 517Z" />
<glyph unicode="&#xc8;" glyph-name="Egrave" d="M56 0T49 6T42 29L108 664Q110 683 119 691T148 700H509Q521 700 526 692T532 667V659Q530 589 498 589H231L212 414H450Q462 414 467 406T473 380V373Q472 340 465 322T440 303H201L180 111H448Q460 111 465 103T471
78V70Q470 37 463 19T437 0H75Q56 0 49 6ZM309 756T291 778L250 826Q223 858 211 874T199 896Q199 904 212 907T256 910Q317 910 330 884L341 863Q362 823 373 799T385 769Q385 762 378 759T356 756Q309 756 291 778Z" />
<glyph unicode="&#xc9;" glyph-name="Eacute" d="M56 0T49 6T42 29L108 664Q110 683 119 691T148 700H509Q521 700 526 692T532 667V659Q530 589 498 589H231L212 414H450Q462 414 467 406T473 380V373Q472 340 465 322T440 303H201L180 111H448Q460 111 465 103T471
78V70Q470 37 463 19T437 0H75Q56 0 49 6ZM288 756T282 758T276 767Q276 772 283 784T305 816Q312 826 323 842T350 884Q368 910 430 910Q484 910 484 898Q484 891 477 884T438 843Q422 828 372 778Q350 756 303 756Q288 756 282 758Z" />
<glyph unicode="&#xca;" glyph-name="Ecircumflex" d="M56 0T49 6T42 29L108 664Q110 683 119 691T148 700H509Q521 700 526 692T532 667V659Q530 589 498 589H231L212 414H450Q462 414 467 406T473 380V373Q472 340 465 322T440 303H201L180 111H448Q460 111
465 103T471 78V70Q470 37 463 19T437 0H75Q56 0 49 6ZM196 750T196 761Q196 768 203 778L275 875Q283 887 297 891T332 895H349Q370 895 383 891T402 875L454 778Q457 771 457 764Q457 758 452 754T436 750H421Q384 750 369 770L333 823L288 771Q277 759 264 755T231
750H215Q196 750 196 761Z" />
<glyph unicode="&#xcb;" glyph-name="Edieresis" d="M56 0T49 6T42 29L108 664Q110 683 119 691T148 700H509Q521 700 526 692T532 667V659Q530 589 498 589H231L212 414H450Q462 414 467 406T473 380V373Q472 340 465 322T440 303H201L180 111H448Q460 111 465
103T471 78V70Q470 37 463 19T437 0H75Q56 0 49 6ZM221 766T210 772T198 794L205 851Q208 879 262 879Q289 879 300 872T312 851L305 794Q302 766 249 766Q221 766 210 772ZM387 766T376 772T365 794L372 851Q374 879 428 879Q456 879 467 872T479 851L472 794Q469
766 415 766Q387 766 376 772Z" />
<glyph unicode="&#xcc;" glyph-name="Igrave" horiz-adv-x="282" d="M42 -2T42 26L109 674Q112 702 165 702H190Q240 702 240 674L172 26Q169 -2 117 -2H92Q42 -2 42 26ZM164 756T146 778L105 826Q78 858 66 874T54 896Q54 904 67 907T111 910Q172 910 185 884L196
863Q217 823 228 799T240 769Q240 762 233 759T211 756Q164 756 146 778Z" />
<glyph unicode="&#xcd;" glyph-name="Iacute" horiz-adv-x="282" d="M42 -2T42 26L109 674Q112 702 165 702H190Q240 702 240 674L172 26Q169 -2 117 -2H92Q42 -2 42 26ZM143 756T137 758T131 767Q131 772 138 784T160 816Q167 826 178 842T205 884Q223 910 285
910Q339 910 339 898Q339 891 332 884T293 843Q277 828 227 778Q205 756 158 756Q143 756 137 758Z" />
<glyph unicode="&#xce;" glyph-name="Icircumflex" horiz-adv-x="282" d="M42 -2T42 26L109 674Q112 702 165 702H190Q240 702 240 674L172 26Q169 -2 117 -2H92Q42 -2 42 26ZM51 750T51 761Q51 768 58 778L130 875Q138 887 152 891T187 895H204Q225 895 238 891T257
875L309 778Q312 771 312 764Q312 758 307 754T291 750H276Q239 750 224 770L188 823L143 771Q132 759 119 755T86 750H70Q51 750 51 761Z" />
<glyph unicode="&#xcf;" glyph-name="Idieresis" horiz-adv-x="282" d="M42 -2T42 26L109 674Q112 702 165 702H190Q240 702 240 674L172 26Q169 -2 117 -2H92Q42 -2 42 26ZM76 766T65 772T53 794L60 851Q63 879 117 879Q144 879 155 872T167 851L160 794Q157
766 104 766Q76 766 65 772ZM242 766T231 772T220 794L227 851Q229 879 283 879Q311 879 322 872T334 851L327 794Q324 766 270 766Q242 766 231 772Z" />
<glyph unicode="&#xd0;" glyph-name="Eth" horiz-adv-x="695" d="M505 700T579 628T654 412Q654 276 609 184T483 46T297 0H76Q58 0 51 6T44 30L72 301H28Q16 301 11 309T5 334Q5 370 12 391T39 412H83L109 664Q111 683 120 691T149 700H370Q505 700 579 628ZM368
111T416 142T492 238T520 398Q520 495 478 542T356 589H232L213 412H291Q302 412 307 404T313 378Q313 342 306 322T280 301H202L182 111H306Q368 111 416 142Z" />
<glyph unicode="&#xd1;" glyph-name="Ntilde" horiz-adv-x="719" d="M64 -2T53 5T41 26L109 674Q112 702 164 702H199Q221 702 233 697T255 678L473 284Q491 250 499 224L506 225Q506 260 510 292L550 674Q553 702 606 702H627Q654 702 665 695T677 674L609 26Q606
-2 554 -2H522Q501 -2 489 2T469 20L246 421Q225 458 219 481L213 480Q213 453 208 413L168 26Q165 -2 112 -2H91Q64 -2 53 5ZM245 785Q238 797 238 805Q238 816 248 824Q300 865 352 865Q375 865 390 862T423 850Q456 837 474 837Q501 837 529 855Q539 861 547
861Q562 861 571 849L573 846Q579 836 579 828Q579 816 565 802Q545 783 517 771T459 759Q436 759 421 762T387 773Q383 774 368 780T337 787Q322 787 312 783T286 771Q278 767 269 767Q264 767 258 771T247 782L245 785Z" />
<glyph unicode="&#xd2;" glyph-name="Ograve" horiz-adv-x="731" d="M190 -7T118 67T45 283Q45 396 81 492T198 647T403 707Q540 707 612 633T685 416Q685 212 592 103T328 -7Q190 -7 118 67ZM437 104T494 182T551 404Q551 498 511 547T391 596Q293 596 237 518T180
295Q180 201 220 153T339 104Q437 104 494 182ZM381 756T363 778L322 826Q295 858 283 874T271 896Q271 904 284 907T328 910Q389 910 402 884L413 863Q434 823 445 799T457 769Q457 762 450 759T428 756Q381 756 363 778Z" />
<glyph unicode="&#xd3;" glyph-name="Oacute" horiz-adv-x="731" d="M190 -7T118 67T45 283Q45 396 81 492T198 647T403 707Q540 707 612 633T685 416Q685 212 592 103T328 -7Q190 -7 118 67ZM437 104T494 182T551 404Q551 498 511 547T391 596Q293 596 237 518T180
295Q180 201 220 153T339 104Q437 104 494 182ZM360 756T354 758T348 767Q348 772 355 784T377 816Q384 826 395 842T422 884Q440 910 502 910Q556 910 556 898Q556 891 549 884T510 843Q494 828 444 778Q422 756 375 756Q360 756 354 758Z" />
<glyph unicode="&#xd4;" glyph-name="Ocircumflex" horiz-adv-x="731" d="M190 -7T118 67T45 283Q45 396 81 492T198 647T403 707Q540 707 612 633T685 416Q685 212 592 103T328 -7Q190 -7 118 67ZM437 104T494 182T551 404Q551 498 511 547T391 596Q293 596 237
518T180 295Q180 201 220 153T339 104Q437 104 494 182ZM268 750T268 761Q268 768 275 778L347 875Q355 887 369 891T404 895H421Q442 895 455 891T474 875L526 778Q529 771 529 764Q529 758 524 754T508 750H493Q456 750 441 770L405 823L360 771Q349 759 336
755T303 750H287Q268 750 268 761Z" />
<glyph unicode="&#xd5;" glyph-name="Otilde" horiz-adv-x="731" d="M190 -7T118 67T45 283Q45 396 81 492T198 647T403 707Q540 707 612 633T685 416Q685 212 592 103T328 -7Q190 -7 118 67ZM437 104T494 182T551 404Q551 498 511 547T391 596Q293 596 237 518T180
295Q180 201 220 153T339 104Q437 104 494 182ZM249 785Q242 797 242 805Q242 816 252 824Q304 865 356 865Q379 865 394 862T427 850Q460 837 478 837Q505 837 533 855Q543 861 551 861Q566 861 575 849L577 846Q583 836 583 828Q583 816 569 802Q549 783 521
771T463 759Q440 759 425 762T391 773Q387 774 372 780T341 787Q326 787 316 783T290 771Q282 767 273 767Q268 767 262 771T251 782L249 785Z" />
<glyph unicode="&#xd6;" glyph-name="Odieresis" horiz-adv-x="731" d="M190 -7T118 67T45 283Q45 396 81 492T198 647T403 707Q540 707 612 633T685 416Q685 212 592 103T328 -7Q190 -7 118 67ZM437 104T494 182T551 404Q551 498 511 547T391 596Q293 596 237
518T180 295Q180 201 220 153T339 104Q437 104 494 182ZM293 766T282 772T270 794L277 851Q280 879 334 879Q361 879 372 872T384 851L377 794Q374 766 321 766Q293 766 282 772ZM459 766T448 772T437 794L444 851Q446 879 500 879Q528 879 539 872T551 851L544
794Q541 766 487 766Q459 766 448 772Z" />
<glyph unicode="&#xd7;" glyph-name="multiply" horiz-adv-x="560" d="M522 422T522 411Q522 401 512 393L340 237L479 81Q486 72 486 66Q486 53 466 35L454 25Q436 7 423 7Q415 7 407 16L268 172L95 16Q86 7 78 7Q66 7 51 25L42 35Q27 52 27 63Q27 73 38 81L210
237L70 393Q63 402 63 408Q63 420 84 439L95 450Q115 467 126 467Q135 467 142 458L281 302L454 458Q463 467 471 467Q484 467 499 450L508 439Q522 422 522 411Z" />
<glyph unicode="&#xd8;" glyph-name="Oslash" horiz-adv-x="731" d="M632 609Q685 538 685 416Q685 212 592 103T328 -7Q196 -7 123 61L69 3Q59 -7 50 -7Q41 -7 27 6T12 29Q12 38 21 47L83 114Q45 181 45 283Q45 396 81 492T198 647T403 707Q517 707 586 656L633
706Q642 716 652 716Q661 716 675 703T690 680Q690 671 681 662L632 609ZM180 254T187 226L498 560Q459 596 391 596Q293 596 237 518T180 295Q180 254 187 226ZM551 464T535 505L215 160Q254 104 339 104Q437 104 494 182T551 404Q551 464 535 505Z" />
<glyph unicode="&#xd9;" glyph-name="Ugrave" horiz-adv-x="712" d="M239 -7T181 19T90 94T58 208Q58 226 59 235L104 674Q106 702 160 702H185Q212 702 223 695T234 674L189 245Q188 239 188 227Q188 168 226 136T328 104Q396 104 443 141T497 236L542 674Q545
702 598 702H622Q649 702 660 695T671 674L625 230Q614 118 533 56T316 -7Q239 -7 181 19ZM375 756T357 778L316 826Q289 858 277 874T265 896Q265 904 278 907T322 910Q383 910 396 884L407 863Q428 823 439 799T451 769Q451 762 444 759T422 756Q375 756 357
778Z" />
<glyph unicode="&#xda;" glyph-name="Uacute" horiz-adv-x="712" d="M239 -7T181 19T90 94T58 208Q58 226 59 235L104 674Q106 702 160 702H185Q212 702 223 695T234 674L189 245Q188 239 188 227Q188 168 226 136T328 104Q396 104 443 141T497 236L542 674Q545
702 598 702H622Q649 702 660 695T671 674L625 230Q614 118 533 56T316 -7Q239 -7 181 19ZM354 756T348 758T342 767Q342 772 349 784T371 816Q378 826 389 842T416 884Q434 910 496 910Q550 910 550 898Q550 891 543 884T504 843Q488 828 438 778Q416 756 369
756Q354 756 348 758Z" />
<glyph unicode="&#xdb;" glyph-name="Ucircumflex" horiz-adv-x="712" d="M239 -7T181 19T90 94T58 208Q58 226 59 235L104 674Q106 702 160 702H185Q212 702 223 695T234 674L189 245Q188 239 188 227Q188 168 226 136T328 104Q396 104 443 141T497 236L542 674Q545
702 598 702H622Q649 702 660 695T671 674L625 230Q614 118 533 56T316 -7Q239 -7 181 19ZM262 750T262 761Q262 768 269 778L341 875Q349 887 363 891T398 895H415Q436 895 449 891T468 875L520 778Q523 771 523 764Q523 758 518 754T502 750H487Q450 750 435
770L399 823L354 771Q343 759 330 755T297 750H281Q262 750 262 761Z" />
<glyph unicode="&#xdc;" glyph-name="Udieresis" horiz-adv-x="712" d="M239 -7T181 19T90 94T58 208Q58 226 59 235L104 674Q106 702 160 702H185Q212 702 223 695T234 674L189 245Q188 239 188 227Q188 168 226 136T328 104Q396 104 443 141T497 236L542 674Q545
702 598 702H622Q649 702 660 695T671 674L625 230Q614 118 533 56T316 -7Q239 -7 181 19ZM287 766T276 772T264 794L271 851Q274 879 328 879Q355 879 366 872T378 851L371 794Q368 766 315 766Q287 766 276 772ZM453 766T442 772T431 794L438 851Q440 879 494
879Q522 879 533 872T545 851L538 794Q535 766 481 766Q453 766 442 772Z" />
<glyph unicode="&#xdd;" glyph-name="Yacute" horiz-adv-x="559" d="M204 -2T193 5T182 26L215 344L46 661Q40 672 40 680Q40 693 54 697T97 702H129Q172 702 181 684L295 459L458 685Q470 702 514 702H540Q592 702 592 683Q592 675 581 661L345 341L312 26Q309
-2 256 -2H232Q204 -2 193 5ZM278 756T272 758T266 767Q266 772 273 784T295 816Q302 826 313 842T340 884Q358 910 420 910Q474 910 474 898Q474 891 467 884T428 843Q412 828 362 778Q340 756 293 756Q278 756 272 758Z" />
<glyph unicode="&#xde;" glyph-name="Thorn" horiz-adv-x="567" d="M63 -2T52 5T40 26L108 674Q111 702 163 702H187Q215 702 226 695T238 674L228 588H347Q431 588 495 550T559 409Q559 310 514 255T413 182T312 163H184L170 26Q167 -2 114 -2H90Q63 -2 52 5ZM314
274Q355 274 390 300T425 393Q425 439 397 458T329 477H217L196 274H314Z" />
<glyph unicode="&#xdf;" glyph-name="germandbls" horiz-adv-x="554" d="M57 -2T46 5T34 26L85 501Q91 563 123 609T208 681T324 707Q411 707 465 668T519 554Q519 499 489 454T406 387V383Q511 348 511 236Q511 167 479 114T390 30T261 0H234Q222 0 217 8T211
33V37Q213 101 245 101H267Q318 101 351 135T384 225Q384 270 357 295T282 322H267Q245 322 245 354V360Q247 422 278 422H284Q326 422 357 453T389 528Q389 561 368 581T311 602Q269 602 242 577T210 509L159 26Q156 -2 104 -2H84Q57 -2 46 5Z" />
<glyph unicode="&#xe0;" glyph-name="agrave" horiz-adv-x="545" d="M527 99T527 89Q527 74 521 38Q517 16 493 5T443 -7Q349 -7 336 78Q312 38 275 15T194 -8Q124 -8 77 46T30 209Q30 303 59 376T140 489T260 530Q299 530 330 514T383 476Q390 497 394 506T409
519T441 524H451Q497 524 497 501L490 432Q459 142 459 129Q459 108 467 101T491 93Q499 93 507 96T519 99Q527 99 527 89ZM356 362T365 397Q327 429 285 429Q220 429 189 373T157 217Q157 96 236 96Q265 96 293 120T340 194L353 329Q356 362 365 397ZM274 579T256
601L215 649Q188 681 176 697T164 719Q164 727 177 730T221 733Q282 733 295 707L306 686Q327 646 338 622T350 592Q350 585 343 582T321 579Q274 579 256 601Z" />
<glyph unicode="&#xe1;" glyph-name="aacute" horiz-adv-x="545" d="M527 99T527 89Q527 74 521 38Q517 16 493 5T443 -7Q349 -7 336 78Q312 38 275 15T194 -8Q124 -8 77 46T30 209Q30 303 59 376T140 489T260 530Q299 530 330 514T383 476Q390 497 394 506T409
519T441 524H451Q497 524 497 501L490 432Q459 142 459 129Q459 108 467 101T491 93Q499 93 507 96T519 99Q527 99 527 89ZM356 362T365 397Q327 429 285 429Q220 429 189 373T157 217Q157 96 236 96Q265 96 293 120T340 194L353 329Q356 362 365 397ZM253 579T247
581T241 590Q241 595 248 607T270 639Q277 649 288 665T315 707Q333 733 395 733Q449 733 449 721Q449 714 442 707T403 666Q387 651 337 601Q315 579 268 579Q253 579 247 581Z" />
<glyph unicode="&#xe2;" glyph-name="acircumflex" horiz-adv-x="545" d="M527 99T527 89Q527 74 521 38Q517 16 493 5T443 -7Q349 -7 336 78Q312 38 275 15T194 -8Q124 -8 77 46T30 209Q30 303 59 376T140 489T260 530Q299 530 330 514T383 476Q390 497 394 506T409
519T441 524H451Q497 524 497 501L490 432Q459 142 459 129Q459 108 467 101T491 93Q499 93 507 96T519 99Q527 99 527 89ZM356 362T365 397Q327 429 285 429Q220 429 189 373T157 217Q157 96 236 96Q265 96 293 120T340 194L353 329Q356 362 365 397ZM161 573T161
584Q161 591 168 601L240 698Q248 710 262 714T297 718H314Q335 718 348 714T367 698L419 601Q422 594 422 587Q422 581 417 577T401 573H386Q349 573 334 593L298 646L253 594Q242 582 229 578T196 573H180Q161 573 161 584Z" />
<glyph unicode="&#xe3;" glyph-name="atilde" horiz-adv-x="545" d="M527 99T527 89Q527 74 521 38Q517 16 493 5T443 -7Q349 -7 336 78Q312 38 275 15T194 -8Q124 -8 77 46T30 209Q30 303 59 376T140 489T260 530Q299 530 330 514T383 476Q390 497 394 506T409
519T441 524H451Q497 524 497 501L490 432Q459 142 459 129Q459 108 467 101T491 93Q499 93 507 96T519 99Q527 99 527 89ZM356 362T365 397Q327 429 285 429Q220 429 189 373T157 217Q157 96 236 96Q265 96 293 120T340 194L353 329Q356 362 365 397ZM142 608Q135
620 135 628Q135 639 145 647Q197 688 249 688Q272 688 287 685T320 673Q353 660 371 660Q398 660 426 678Q436 684 444 684Q459 684 468 672L470 669Q476 659 476 651Q476 639 462 625Q442 606 414 594T356 582Q333 582 318 585T284 596Q280 597 265 603T234 610Q219
610 209 606T183 594Q175 590 166 590Q161 590 155 594T144 605L142 608Z" />
<glyph unicode="&#xe4;" glyph-name="adieresis" horiz-adv-x="545" d="M527 99T527 89Q527 74 521 38Q517 16 493 5T443 -7Q349 -7 336 78Q312 38 275 15T194 -8Q124 -8 77 46T30 209Q30 303 59 376T140 489T260 530Q299 530 330 514T383 476Q390 497 394 506T409
519T441 524H451Q497 524 497 501L490 432Q459 142 459 129Q459 108 467 101T491 93Q499 93 507 96T519 99Q527 99 527 89ZM356 362T365 397Q327 429 285 429Q220 429 189 373T157 217Q157 96 236 96Q265 96 293 120T340 194L353 329Q356 362 365 397ZM186 589T175
595T163 617L170 674Q173 702 227 702Q254 702 265 695T277 674L270 617Q267 589 214 589Q186 589 175 595ZM352 589T341 595T330 617L337 674Q339 702 393 702Q421 702 432 695T444 674L437 617Q434 589 380 589Q352 589 341 595Z" />
<glyph unicode="&#xe5;" glyph-name="aring" horiz-adv-x="545" d="M527 99T527 89Q527 74 521 38Q517 16 493 5T443 -7Q349 -7 336 78Q312 38 275 15T194 -8Q124 -8 77 46T30 209Q30 303 59 376T140 489T260 530Q299 530 330 514T383 476Q390 497 394 506T409
519T441 524H451Q497 524 497 501L490 432Q459 142 459 129Q459 108 467 101T491 93Q499 93 507 96T519 99Q527 99 527 89ZM356 362T365 397Q327 429 285 429Q220 429 189 373T157 217Q157 96 236 96Q265 96 293 120T340 194L353 329Q356 362 365 397ZM253 555T229
579T205 639Q205 683 234 713T309 743Q346 743 370 719T394 659Q394 615 365 585T290 555Q253 555 229 579ZM314 607T327 620T341 652Q341 668 331 679T304 690Q286 690 272 677T258 644Q258 628 268 618T295 607Q314 607 327 620Z" />
<glyph unicode="&#xe6;" glyph-name="ae" horiz-adv-x="829" d="M782 298T713 255T547 211Q497 211 450 216Q451 147 481 120T570 93Q609 93 640 103T705 130Q720 139 725 139Q729 139 730 137T732 126Q732 117 730 95T725 61Q716 26 662 10T555 -7Q428 -7 371
58Q339 32 288 13T181 -7Q108 -7 67 27T26 122Q26 209 99 258T332 309Q343 361 363 398Q351 415 330 422T272 430Q238 430 210 422T150 401Q133 394 130 394Q118 394 105 419T92 460Q92 476 120 492T194 519T289 530Q393 530 444 488Q507 530 598 530Q667 530 708
508T765 454T782 390Q782 298 713 255ZM512 301Q571 301 615 320T659 375Q659 402 640 416T588 430Q484 430 457 301H512ZM243 94T275 106T330 139Q323 168 323 208V225Q249 224 202 205T154 142Q154 119 168 107T212 94Q243 94 275 106Z" />
<glyph unicode="&#xe7;" glyph-name="ccedilla" horiz-adv-x="485" d="M242 430T205 378T167 216Q167 153 193 123T276 93Q313 93 340 101T395 122Q411 130 417 130Q421 130 422 128T423 117Q423 54 407 35Q390 16 354 6T277 -7L264 -40Q292 -43 315 -60T338 -110Q338
-163 303 -187T210 -211Q175 -211 142 -201T109 -163Q109 -121 122 -121Q125 -121 140 -128T171 -141T207 -147Q245 -147 245 -122Q245 -112 239 -107T218 -95Q205 -89 199 -85T193 -72Q193 -67 219 -5Q128 4 83 55T38 204Q38 348 103 439T312 530Q368 530 415
514T464 467Q464 459 456 443T436 414T415 401Q411 401 405 404T396 410Q380 419 361 424T312 430Q242 430 205 378Z" />
<glyph unicode="&#xe8;" glyph-name="egrave" horiz-adv-x="539" d="M497 296T428 252T262 207Q211 207 165 214Q166 146 197 120T285 93Q324 93 355 103T420 130Q435 139 440 139Q444 139 445 137T447 126Q447 117 445 95T440 61Q431 26 377 10T270 -7Q161 -7
100 46T38 208Q38 364 112 447T313 530Q382 530 423 507T480 453T497 390Q497 296 428 252ZM227 296Q287 296 330 316T374 375Q374 400 355 415T303 430Q197 430 171 296H227ZM289 579T271 601L230 649Q203 681 191 697T179 719Q179 727 192 730T236 733Q297 733
310 707L321 686Q342 646 353 622T365 592Q365 585 358 582T336 579Q289 579 271 601Z" />
<glyph unicode="&#xe9;" glyph-name="eacute" horiz-adv-x="539" d="M497 296T428 252T262 207Q211 207 165 214Q166 146 197 120T285 93Q324 93 355 103T420 130Q435 139 440 139Q444 139 445 137T447 126Q447 117 445 95T440 61Q431 26 377 10T270 -7Q161 -7
100 46T38 208Q38 364 112 447T313 530Q382 530 423 507T480 453T497 390Q497 296 428 252ZM227 296Q287 296 330 316T374 375Q374 400 355 415T303 430Q197 430 171 296H227ZM268 579T262 581T256 590Q256 595 263 607T285 639Q292 649 303 665T330 707Q348 733
410 733Q464 733 464 721Q464 714 457 707T418 666Q402 651 352 601Q330 579 283 579Q268 579 262 581Z" />
<glyph unicode="&#xea;" glyph-name="ecircumflex" horiz-adv-x="539" d="M497 296T428 252T262 207Q211 207 165 214Q166 146 197 120T285 93Q324 93 355 103T420 130Q435 139 440 139Q444 139 445 137T447 126Q447 117 445 95T440 61Q431 26 377 10T270 -7Q161
-7 100 46T38 208Q38 364 112 447T313 530Q382 530 423 507T480 453T497 390Q497 296 428 252ZM227 296Q287 296 330 316T374 375Q374 400 355 415T303 430Q197 430 171 296H227ZM176 573T176 584Q176 591 183 601L255 698Q263 710 277 714T312 718H329Q350 718
363 714T382 698L434 601Q437 594 437 587Q437 581 432 577T416 573H401Q364 573 349 593L313 646L268 594Q257 582 244 578T211 573H195Q176 573 176 584Z" />
<glyph unicode="&#xeb;" glyph-name="edieresis" horiz-adv-x="539" d="M497 296T428 252T262 207Q211 207 165 214Q166 146 197 120T285 93Q324 93 355 103T420 130Q435 139 440 139Q444 139 445 137T447 126Q447 117 445 95T440 61Q431 26 377 10T270 -7Q161
-7 100 46T38 208Q38 364 112 447T313 530Q382 530 423 507T480 453T497 390Q497 296 428 252ZM227 296Q287 296 330 316T374 375Q374 400 355 415T303 430Q197 430 171 296H227ZM201 589T190 595T178 617L185 674Q188 702 242 702Q269 702 280 695T292 674L285
617Q282 589 229 589Q201 589 190 595ZM367 589T356 595T345 617L352 674Q354 702 408 702Q436 702 447 695T459 674L452 617Q449 589 395 589Q367 589 356 595Z" />
<glyph unicode="&#xec;" glyph-name="igrave" horiz-adv-x="265" d="M41 -7T41 108Q41 108 45 154Q47 189 49 204L80 497Q83 525 136 525H155Q205 525 205 497Q199 442 183 291T167 129Q167 109 175 101T199 93Q207 93 215 96T227 99Q231 99 232 97T234 89Q234
68 229 38Q225 16 201 5T151 -7Q41 -7 41 108ZM384 579T366 601L325 649Q298 681 286 697T274 719Q274 727 287 730T331 733Q392 733 405 707L416 686Q437 646 448 622T460 592Q460 585 453 582T431 579Q384 579 366 601Z" />
<glyph unicode="&#xed;" glyph-name="iacute" horiz-adv-x="265" d="M41 -7T41 108Q41 108 45 154Q47 189 49 204L80 497Q83 525 136 525H155Q205 525 205 497Q199 442 183 291T167 129Q167 109 175 101T199 93Q207 93 215 96T227 99Q231 99 232 97T234 89Q234
68 229 38Q225 16 201 5T151 -7Q41 -7 41 108ZM107 579T101 581T95 590Q95 595 102 607T124 639Q131 649 142 665T169 707Q187 733 249 733Q303 733 303 721Q303 714 296 707T257 666Q241 651 191 601Q169 579 122 579Q107 579 101 581Z" />
<glyph unicode="&#xee;" glyph-name="icircumflex" horiz-adv-x="265" d="M41 -7T41 108Q41 108 45 154Q47 189 49 204L80 497Q83 525 136 525H155Q205 525 205 497Q199 442 183 291T167 129Q167 109 175 101T199 93Q207 93 215 96T227 99Q231 99 232 97T234 89Q234
68 229 38Q225 16 201 5T151 -7Q41 -7 41 108ZM271 573T271 584Q271 591 278 601L350 698Q358 710 372 714T407 718H424Q445 718 458 714T477 698L529 601Q532 594 532 587Q532 581 527 577T511 573H496Q459 573 444 593L408 646L363 594Q352 582 339 578T306 573H290Q271
573 271 584Z" />
<glyph unicode="&#xef;" glyph-name="idieresis" horiz-adv-x="265" d="M41 -7T41 108Q41 108 45 154Q47 189 49 204L80 497Q83 525 136 525H155Q205 525 205 497Q199 442 183 291T167 129Q167 109 175 101T199 93Q207 93 215 96T227 99Q231 99 232 97T234 89Q234
68 229 38Q225 16 201 5T151 -7Q41 -7 41 108ZM296 589T285 595T273 617L280 674Q283 702 337 702Q364 702 375 695T387 674L380 617Q377 589 324 589Q296 589 285 595ZM462 589T451 595T440 617L447 674Q449 702 503 702Q531 702 542 695T554 674L547 617Q544
589 490 589Q462 589 451 595Z" />
<glyph unicode="&#xf0;" glyph-name="eth" horiz-adv-x="569" d="M451 610Q483 551 502 475T522 319Q522 162 453 78T255 -7Q150 -7 96 48T41 211Q41 363 113 446T311 530Q335 530 371 524Q361 555 342 596Q276 586 271 586Q259 586 250 597T241 621Q241 636 262
639L316 647Q316 647 294 680Q289 690 289 696Q289 707 302 708Q324 712 355 714Q374 714 386 705T410 678L422 661L494 670Q506 670 514 659T522 635Q522 620 503 617L451 610ZM326 93T360 147T395 306Q395 430 299 430Q236 430 202 376T167 216Q167 93 264 93Q326
93 360 147Z" />
<glyph unicode="&#xf1;" glyph-name="ntilde" horiz-adv-x="557" d="M528 99T528 89Q528 74 522 38Q518 16 494 5T444 -7Q389 -7 362 21T334 109L336 138L338 164Q340 186 350 282Q359 359 359 366Q359 426 297 426Q265 426 234 401T183 329L152 26Q149 -2 97
-2H78Q53 -2 40 6T27 25L62 368Q68 424 68 439Q68 457 67 468T66 487Q66 502 94 510T160 518Q191 518 191 445Q221 483 265 506T354 530Q486 530 486 402Q484 378 480 338T473 263Q460 146 460 129Q460 109 468 101T492 93Q500 93 508 96T520 99Q528 99 528 89ZM143
608Q136 620 136 628Q136 639 146 647Q198 688 250 688Q273 688 288 685T321 673Q354 660 372 660Q399 660 427 678Q437 684 445 684Q460 684 469 672L471 669Q477 659 477 651Q477 639 463 625Q443 606 415 594T357 582Q334 582 319 585T285 596Q281 597 266 603T235
610Q220 610 210 606T184 594Q176 590 167 590Q162 590 156 594T145 605L143 608Z" />
<glyph unicode="&#xf2;" glyph-name="ograve" horiz-adv-x="569" d="M146 -7T92 48T37 210Q37 348 102 439T308 530Q411 530 465 474T519 311Q519 159 448 76T251 -7Q146 -7 92 48ZM323 93T357 148T391 306Q391 369 368 399T296 430Q233 430 199 374T164 216Q164
93 260 93Q323 93 357 148ZM281 579T263 601L222 649Q195 681 183 697T171 719Q171 727 184 730T228 733Q289 733 302 707L313 686Q334 646 345 622T357 592Q357 585 350 582T328 579Q281 579 263 601Z" />
<glyph unicode="&#xf3;" glyph-name="oacute" horiz-adv-x="569" d="M146 -7T92 48T37 210Q37 348 102 439T308 530Q411 530 465 474T519 311Q519 159 448 76T251 -7Q146 -7 92 48ZM323 93T357 148T391 306Q391 369 368 399T296 430Q233 430 199 374T164 216Q164
93 260 93Q323 93 357 148ZM260 579T254 581T248 590Q248 595 255 607T277 639Q284 649 295 665T322 707Q340 733 402 733Q456 733 456 721Q456 714 449 707T410 666Q394 651 344 601Q322 579 275 579Q260 579 254 581Z" />
<glyph unicode="&#xf4;" glyph-name="ocircumflex" horiz-adv-x="569" d="M146 -7T92 48T37 210Q37 348 102 439T308 530Q411 530 465 474T519 311Q519 159 448 76T251 -7Q146 -7 92 48ZM323 93T357 148T391 306Q391 369 368 399T296 430Q233 430 199 374T164
216Q164 93 260 93Q323 93 357 148ZM168 573T168 584Q168 591 175 601L247 698Q255 710 269 714T304 718H321Q342 718 355 714T374 698L426 601Q429 594 429 587Q429 581 424 577T408 573H393Q356 573 341 593L305 646L260 594Q249 582 236 578T203 573H187Q168
573 168 584Z" />
<glyph unicode="&#xf5;" glyph-name="otilde" horiz-adv-x="569" d="M146 -7T92 48T37 210Q37 348 102 439T308 530Q411 530 465 474T519 311Q519 159 448 76T251 -7Q146 -7 92 48ZM323 93T357 148T391 306Q391 369 368 399T296 430Q233 430 199 374T164 216Q164
93 260 93Q323 93 357 148ZM149 608Q142 620 142 628Q142 639 152 647Q204 688 256 688Q279 688 294 685T327 673Q360 660 378 660Q405 660 433 678Q443 684 451 684Q466 684 475 672L477 669Q483 659 483 651Q483 639 469 625Q449 606 421 594T363 582Q340 582
325 585T291 596Q287 597 272 603T241 610Q226 610 216 606T190 594Q182 590 173 590Q168 590 162 594T151 605L149 608Z" />
<glyph unicode="&#xf6;" glyph-name="odieresis" horiz-adv-x="569" d="M146 -7T92 48T37 210Q37 348 102 439T308 530Q411 530 465 474T519 311Q519 159 448 76T251 -7Q146 -7 92 48ZM323 93T357 148T391 306Q391 369 368 399T296 430Q233 430 199 374T164 216Q164
93 260 93Q323 93 357 148ZM193 589T182 595T170 617L177 674Q180 702 234 702Q261 702 272 695T284 674L277 617Q274 589 221 589Q193 589 182 595ZM359 589T348 595T337 617L344 674Q346 702 400 702Q428 702 439 695T451 674L444 617Q441 589 387 589Q359 589
348 595Z" />
<glyph unicode="&#xf7;" glyph-name="divide" horiz-adv-x="560" d="M258 336T248 342T237 365L243 428Q246 457 299 457H307Q335 457 346 450T357 428L351 365Q348 336 295 336H286Q258 336 248 342ZM36 181T36 211V219Q36 241 44 257T71 274H499Q512 274 518
266T525 244V235Q525 214 516 198T489 181H62Q36 181 36 211ZM224 -2T213 5T201 26L208 90Q209 118 264 118H272Q299 118 310 111T322 90L315 26Q312 -2 260 -2H251Q224 -2 213 5Z" />
<glyph unicode="&#xf8;" glyph-name="oslash" horiz-adv-x="569" d="M534 496T526 484L492 447Q525 394 525 311Q525 159 454 76T257 -7Q171 -7 119 30L94 3Q84 -7 76 -7Q68 -7 59 2L48 11Q38 20 38 29Q38 38 46 46L75 78Q43 130 43 210Q43 348 108 439T314 530Q397
530 448 494L478 527Q486 537 495 537Q502 537 513 528L523 519Q534 508 534 501Q534 496 526 484ZM170 204T172 186L369 405Q345 430 302 430Q239 430 205 374T170 216Q170 204 172 186ZM397 318T395 338L198 119Q222 93 266 93Q329 93 363 148T397 306Q397 318
395 338Z" />
<glyph unicode="&#xf9;" glyph-name="ugrave" horiz-adv-x="557" d="M524 99T525 97T527 89Q527 68 521 38Q518 16 494 5T444 -7Q347 -7 336 81Q305 41 261 17T171 -7Q39 -7 39 121Q39 131 41 151L76 497Q79 525 131 525H151Q176 525 188 518T201 497L167 169Q166
164 166 155Q166 97 228 97Q260 97 291 121T341 193L373 497Q376 525 428 525H447Q497 525 497 497L476 299L469 231Q460 134 460 129Q460 109 468 101T492 93Q500 93 508 96T520 99Q524 99 525 97ZM279 579T261 601L220 649Q193 681 181 697T169 719Q169 727 182
730T226 733Q287 733 300 707L311 686Q332 646 343 622T355 592Q355 585 348 582T326 579Q279 579 261 601Z" />
<glyph unicode="&#xfa;" glyph-name="uacute" horiz-adv-x="557" d="M524 99T525 97T527 89Q527 68 521 38Q518 16 494 5T444 -7Q347 -7 336 81Q305 41 261 17T171 -7Q39 -7 39 121Q39 131 41 151L76 497Q79 525 131 525H151Q176 525 188 518T201 497L167 169Q166
164 166 155Q166 97 228 97Q260 97 291 121T341 193L373 497Q376 525 428 525H447Q497 525 497 497L476 299L469 231Q460 134 460 129Q460 109 468 101T492 93Q500 93 508 96T520 99Q524 99 525 97ZM258 579T252 581T246 590Q246 595 253 607T275 639Q282 649 293
665T320 707Q338 733 400 733Q454 733 454 721Q454 714 447 707T408 666Q392 651 342 601Q320 579 273 579Q258 579 252 581Z" />
<glyph unicode="&#xfb;" glyph-name="ucircumflex" horiz-adv-x="557" d="M524 99T525 97T527 89Q527 68 521 38Q518 16 494 5T444 -7Q347 -7 336 81Q305 41 261 17T171 -7Q39 -7 39 121Q39 131 41 151L76 497Q79 525 131 525H151Q176 525 188 518T201 497L167
169Q166 164 166 155Q166 97 228 97Q260 97 291 121T341 193L373 497Q376 525 428 525H447Q497 525 497 497L476 299L469 231Q460 134 460 129Q460 109 468 101T492 93Q500 93 508 96T520 99Q524 99 525 97ZM166 573T166 584Q166 591 173 601L245 698Q253 710 267
714T302 718H319Q340 718 353 714T372 698L424 601Q427 594 427 587Q427 581 422 577T406 573H391Q354 573 339 593L303 646L258 594Q247 582 234 578T201 573H185Q166 573 166 584Z" />
<glyph unicode="&#xfc;" glyph-name="udieresis" horiz-adv-x="557" d="M524 99T525 97T527 89Q527 68 521 38Q518 16 494 5T444 -7Q347 -7 336 81Q305 41 261 17T171 -7Q39 -7 39 121Q39 131 41 151L76 497Q79 525 131 525H151Q176 525 188 518T201 497L167 169Q166
164 166 155Q166 97 228 97Q260 97 291 121T341 193L373 497Q376 525 428 525H447Q497 525 497 497L476 299L469 231Q460 134 460 129Q460 109 468 101T492 93Q500 93 508 96T520 99Q524 99 525 97ZM191 589T180 595T168 617L175 674Q178 702 232 702Q259 702 270
695T282 674L275 617Q272 589 219 589Q191 589 180 595ZM357 589T346 595T335 617L342 674Q344 702 398 702Q426 702 437 695T449 674L442 617Q439 589 385 589Q357 589 346 595Z" />
<glyph unicode="&#xfd;" glyph-name="yacute" horiz-adv-x="481" d="M491 525T491 506Q491 497 487 488L176 -186Q166 -207 121 -207H105Q57 -207 57 -189Q57 -182 63 -170L153 11L35 484Q32 498 32 502Q32 525 89 525H112Q156 525 161 506L213 286Q221 251 231
180H235Q252 235 273 286L372 506Q380 525 424 525H441Q491 525 491 506ZM227 579T221 581T215 590Q215 595 222 607T244 639Q251 649 262 665T289 707Q307 733 369 733Q423 733 423 721Q423 714 416 707T377 666Q361 651 311 601Q289 579 242 579Q227 579 221
581Z" />
<glyph unicode="&#xfe;" glyph-name="thorn" horiz-adv-x="571" d="M53 -207T41 -199T28 -179L123 725Q125 739 139 746T179 753H198Q223 753 235 745T248 726L220 461Q245 495 279 512T353 530Q398 530 435 507T496 436T519 314Q519 220 491 147T411 34T292 -7Q255
-7 226 6T175 37L152 -178Q151 -192 137 -199T97 -207H78Q53 -207 41 -199ZM330 93T361 150T392 306Q392 427 311 427Q282 427 255 404T207 336L184 124Q222 93 266 93Q330 93 361 150Z" />
<glyph unicode="&#xff;" glyph-name="ydieresis" horiz-adv-x="481" d="M491 525T491 506Q491 497 487 488L176 -186Q166 -207 121 -207H105Q57 -207 57 -189Q57 -182 63 -170L153 11L35 484Q32 498 32 502Q32 525 89 525H112Q156 525 161 506L213 286Q221 251
231 180H235Q252 235 273 286L372 506Q380 525 424 525H441Q491 525 491 506ZM160 589T149 595T137 617L144 674Q147 702 201 702Q228 702 239 695T251 674L244 617Q241 589 188 589Q160 589 149 595ZM326 589T315 595T304 617L311 674Q313 702 367 702Q395 702
406 695T418 674L411 617Q408 589 354 589Q326 589 315 595Z" />
<glyph unicode="&#x2013;" glyph-name="endash" horiz-adv-x="500" d="M11 219T6 226T0 249V251Q0 274 6 293T33 313H480Q503 313 503 282V281Q503 258 497 239T470 219H23Q11 219 6 226Z" />
<glyph unicode="&#x2014;" glyph-name="emdash" horiz-adv-x="1000" d="M11 219T6 226T0 249V251Q0 274 6 293T33 313H977Q1000 313 1000 282V281Q1000 258 994 239T967 219H23Q11 219 6 226Z" />
<glyph unicode="&#x2018;" glyph-name="quoteleft" horiz-adv-x="212" d="M52 495T52 531Q54 577 81 629T143 717T200 754Q214 754 225 750T237 737Q237 728 227 708Q206 670 193 632T173 535Q171 516 157 506T116 495H101Q52 495 52 531Z" />
<glyph unicode="&#x2019;" glyph-name="quoteright" horiz-adv-x="212" d="M73 495T62 499T50 513Q50 522 56 534T64 548Q84 584 97 622T115 714Q117 733 131 743T171 754H187Q212 754 224 745T236 718Q234 672 207 620T144 532T87 495Q73 495 62 499Z" />
<glyph unicode="&#x201a;" glyph-name="quotesinglbase" horiz-adv-x="198" d="M7 -122T-4 -118T-16 -104Q-16 -95 -10 -83T-2 -69Q18 -33 31 5T49 97Q51 116 65 126T105 137H121Q146 137 158 128T170 101Q168 55 141 3T78 -85T21 -122Q7 -122 -4 -118Z" />
<glyph unicode="&#x201c;" glyph-name="quotedblleft" horiz-adv-x="350" d="M203 495T203 531Q205 577 232 629T294 717T351 754Q365 754 376 750T388 737Q388 728 378 708Q357 670 344 632T324 535Q322 516 308 506T267 495H252Q203 495 203 531ZM296 495T296
531Q298 577 325 629T387 717T444 754Q458 754 469 750T481 737Q481 728 471 708Q450 670 437 632T417 535Q415 516 401 506T360 495H345Q296 495 296 531Z" />
<glyph unicode="&#x201d;" glyph-name="quotedblright" horiz-adv-x="350" d="M224 495T213 499T201 513Q201 522 207 534T215 548Q235 584 248 622T266 714Q268 733 282 743T322 754H338Q363 754 375 745T387 718Q385 672 358 620T295 532T238 495Q224 495 213
499ZM317 495T306 499T294 513Q294 522 300 534T308 548Q328 584 341 622T359 714Q361 733 375 743T415 754H431Q456 754 468 745T480 718Q478 672 451 620T388 532T331 495Q317 495 306 499Z" />
<glyph unicode="&#x201e;" glyph-name="quotedblbase" horiz-adv-x="336" d="M158 -121T147 -117T135 -103Q135 -94 141 -82T149 -68Q169 -32 182 6T200 98Q202 117 216 127T256 138H272Q297 138 309 129T321 102Q319 56 292 4T229 -84T172 -121Q158 -121 147
-117ZM-5 -121T-16 -117T-28 -103Q-28 -94 -22 -82T-14 -68Q6 -32 19 6T37 98Q39 117 53 127T93 138H109Q134 138 146 129T158 102Q156 56 129 4T66 -84T9 -121Q-5 -121 -16 -117Z" />
<glyph unicode="&#x2022;" glyph-name="bullet" horiz-adv-x="336" d="M103 197T70 230T36 313Q36 349 54 382T106 435T181 456Q231 456 264 423T298 340Q298 301 279 269T228 217T154 197Q103 197 70 230Z" />
<glyph unicode="&#x2039;" glyph-name="guilsinglleft" horiz-adv-x="300" d="M165 51T156 66L44 220Q32 235 33 250Q33 265 37 275T51 296L196 450Q209 464 223 464Q235 464 252 451T269 423Q269 413 257 399L133 258L228 116Q234 107 234 98Q234 85 215 68T179
51Q165 51 156 66Z" />
<glyph unicode="&#x203a;" glyph-name="guilsinglright" horiz-adv-x="300" d="M60 51T44 65T28 93Q28 101 39 116L164 257L69 399Q63 408 63 417Q63 431 82 447T117 464Q130 464 141 450L253 296Q264 281 264 264Q264 250 260 240T245 219L101 65Q85 51 74 51Q60
51 44 65Z" />
</font>
</defs>
</svg>
