<?xml version="1.0" standalone="no"?>
<!DOCTYPE svg PUBLIC "-//W3C//DTD SVG 1.1//EN" "http://www.w3.org/Graphics/SVG/1.1/DTD/svg11.dtd">
<svg xmlns="http://www.w3.org/2000/svg">
<defs >
<font id="Asap" horiz-adv-x="548" ><font-face
    font-family="Asap"
    units-per-em="1000"
    panose-1="2 15 8 4 3 2 2 6 2 3"
    ascent="934"
    descent="-212"
    alphabetic="0" />
<glyph unicode=" " glyph-name="space" horiz-adv-x="240" />
<glyph unicode="!" glyph-name="exclam" horiz-adv-x="294" d="M116 222T105 229T94 254V670Q94 702 154 702H197Q226 702 241 695T257 674L207 254Q205 237 195 230T156 222H145Q116 222 105 229ZM74 -2T74 30V122Q74 154 134 154H166Q226 154 226 122V30Q226
-2 166 -2H134Q74 -2 74 30Z" />
<glyph unicode="&quot;" glyph-name="quotedbl" horiz-adv-x="319" d="M59 464T51 471T41 494L19 665V670Q19 702 79 702H89Q149 702 149 670Q147 647 141 596T127 494Q125 478 117 471T93 464H75Q59 464 51 471ZM210 464T202 471T192 494L170 665V670Q170 702
230 702H240Q300 702 300 670Q298 647 292 596T278 494Q276 478 268 471T244 464H226Q210 464 202 471Z" />
<glyph unicode="#" glyph-name="numbersign" horiz-adv-x="534" d="M73 -2T62 3T51 21L56 52Q58 63 81 183H38Q22 183 15 195T8 233V243Q8 269 15 281T38 293H101L122 403H74Q58 403 51 415T44 453V463Q44 489 51 501T74 513H142L168 655Q174 686 224 686H237Q282
686 282 664L255 513H349L375 655Q381 686 431 686H444Q489 686 489 664L462 513H495Q511 513 518 501T525 463V453Q525 427 518 415T495 403H442L421 293H463Q479 293 486 281T493 243V233Q493 207 486 195T463 183H401L372 29Q366 -2 317 -2H304Q280 -2 269 3T258
21L263 52Q265 63 288 183H194L165 29Q159 -2 110 -2H97Q73 -2 62 3ZM308 293L329 403H235L214 293H308Z" />
<glyph unicode="$" glyph-name="dollar" horiz-adv-x="496" d="M262 -81Q247 -81 240 -74T233 -51V-7Q130 -4 63 31Q42 43 31 56T19 80Q19 95 30 116T56 153T81 169Q86 169 110 158Q139 143 168 133T233 123V288Q170 311 131 332T62 395T33 503Q33 595 90 646T233
706V738Q233 768 260 768H262Q290 768 290 738V707Q334 705 369 696T425 672Q450 655 450 638Q450 624 441 603T419 567T395 551Q391 551 381 555T362 563Q329 575 290 576V424Q352 397 388 376T452 315T480 214Q480 111 426 57T290 -6V-51Q290 -81 263 -81H262ZM233
570Q181 557 181 517Q181 496 194 480T233 450V570ZM333 152T333 196Q333 236 290 261V134Q333 152 333 196Z" />
<glyph unicode="%" glyph-name="percent" horiz-adv-x="765" d="M131 372T88 409T45 540Q45 634 88 671T195 708Q259 708 302 671T345 540Q345 446 302 409T195 372Q131 372 88 409ZM164 -2T159 1T153 11Q153 16 158 26L515 674Q531 702 559 702H603Q613 702 618
698T624 688Q624 684 619 674L262 26Q246 -2 218 -2H174Q164 -2 159 1ZM242 454T242 540Q242 622 195 622Q168 622 158 599T147 540Q147 504 158 479T195 454Q242 454 242 540ZM518 -8T475 29T432 160Q432 254 475 291T582 328Q646 328 689 291T732 160Q732 66
689 29T582 -8Q518 -8 475 29ZM629 74T629 160Q629 242 582 242Q555 242 545 219T534 160Q534 124 545 99T582 74Q629 74 629 160Z" />
<glyph unicode="&amp;" glyph-name="ampersand" horiz-adv-x="624" d="M613 113T620 98T631 65T635 41Q635 -8 539 -8Q467 -8 430 32Q387 10 347 1T249 -8Q148 -8 86 49T23 204Q23 267 52 314T139 383V387Q96 405 71 443T46 533Q46 613 101 660T251 708Q299 708
330 700T361 666Q361 631 350 608T326 584Q322 584 308 587T277 591Q237 591 217 569T196 509Q196 471 223 449T299 426H393L406 521Q411 553 460 553H491Q541 553 541 521V426H590Q606 426 613 414T620 376V359Q620 333 613 321T590 309H541V152Q541 129 549 119T577
109Q582 109 590 111T604 113Q613 113 620 98ZM173 160T200 135T272 109Q331 109 393 136V309H290Q229 309 201 283T173 206Q173 160 200 135Z" />
<glyph unicode="&apos;" glyph-name="quotesingle" horiz-adv-x="183" d="M70 464T62 471T52 494L30 665V670Q30 702 90 702H100Q160 702 160 670Q158 647 152 596T138 494Q136 478 128 471T104 464H86Q70 464 62 471Z" />
<glyph unicode="(" glyph-name="parenleft" horiz-adv-x="301" d="M213 -208T201 -192Q128 -87 90 35T51 287Q51 419 89 542T201 767Q213 783 228 783Q244 783 264 768T285 737Q285 726 280 717Q220 605 194 503T168 287Q168 171 193 70T280 -142Q285 -151 285
-162Q285 -178 265 -193T228 -208Q213 -208 201 -192Z" />
<glyph unicode=")" glyph-name="parenright" horiz-adv-x="301" d="M54 -208T34 -193T13 -162Q13 -151 18 -142Q78 -30 104 71T130 287Q130 404 105 506T18 717Q13 726 13 737Q13 753 33 768T70 783Q85 783 97 767Q170 662 208 540T247 287Q247 156 209 33T97
-192Q85 -208 70 -208Q54 -208 34 -193Z" />
<glyph unicode="*" glyph-name="asterisk" horiz-adv-x="373" d="M88 411T77 421T65 440Q65 450 74 460L130 539L55 563Q33 570 33 586Q33 599 40 611T61 623Q70 623 75 621L152 596V678Q152 694 159 701T182 708Q198 708 205 701T212 678V596L287 621Q292 623
300 623Q311 623 320 613T329 586Q329 577 324 572T307 563L231 539L288 460Q296 451 296 440Q296 431 285 421T263 411Q251 411 240 426L181 509L122 426Q111 411 99 411Q88 411 77 421Z" />
<glyph unicode="+" glyph-name="plus" horiz-adv-x="560" d="M246 0T234 7T222 30V182H71Q55 182 48 194T41 232V239Q41 265 48 277T71 289H222V443Q222 459 234 466T272 473H286Q312 473 324 466T336 443V289H489Q505 289 512 277T519 239V232Q519 206 512 194T489
182H336V30Q336 14 324 7T286 0H272Q246 0 234 7Z" />
<glyph unicode="," glyph-name="comma" horiz-adv-x="198" d="M20 -125T6 -120T-9 -103Q-9 -93 0 -70Q16 -31 25 7T35 110Q35 154 95 154H114Q144 154 159 142T174 110Q174 57 150 3T92 -88T36 -125Q20 -125 6 -120Z" />
<glyph unicode="-" glyph-name="hyphen" horiz-adv-x="320" d="M42 212T35 224T28 262V269Q28 295 35 307T58 319H262Q278 319 285 307T292 269V262Q292 236 285 224T262 212H58Q42 212 35 224Z" />
<glyph unicode="." glyph-name="period" horiz-adv-x="198" d="M22 -2T22 30V122Q22 154 82 154H114Q174 154 174 122V30Q174 -2 114 -2H82Q22 -2 22 30Z" />
<glyph unicode="/" glyph-name="slash" horiz-adv-x="370" d="M-30 -79T-30 -63Q-30 -61 -26 -49L265 672Q277 702 326 702H350Q392 702 392 686Q392 681 389 672L98 -49Q86 -79 37 -79H13Q-30 -79 -30 -63Z" />
<glyph unicode="0" glyph-name="zero" horiz-adv-x="535" d="M193 -8T140 34T59 157T30 350Q30 462 58 542T140 665T267 708Q341 708 394 666T475 543T504 350Q504 238 476 158T394 35T267 -8Q193 -8 140 34ZM309 109T331 170T354 350Q354 469 332 530T267 591Q225
591 203 530T180 350Q180 231 202 170T267 109Q309 109 331 170Z" />
<glyph unicode="1" glyph-name="one" horiz-adv-x="535" d="M56 0T49 12T42 50V67Q42 93 49 105T72 117H205V566L69 546Q52 546 45 573T37 630Q37 653 63 658L312 704Q325 704 339 697T353 680V117H460Q476 117 483 105T490 67V50Q490 24 483 12T460 0H72Q56 0 49 12Z" />
<glyph unicode="2" glyph-name="two" horiz-adv-x="535" d="M51 0T42 31T33 88Q33 99 36 103L289 413Q327 460 327 509Q327 548 301 569T234 590Q206 590 186 582T142 559Q125 547 117 547Q95 547 78 571T60 616Q60 658 121 683T259 708Q362 708 419 654T477 512Q477
424 416 349L228 117H459Q475 117 482 105T489 67V50Q489 24 482 12T459 0H61Q51 0 42 31Z" />
<glyph unicode="3" glyph-name="three" horiz-adv-x="535" d="M209 -8T159 0T72 26T36 74Q36 84 44 102T63 135T85 150Q91 150 111 140Q140 126 167 118T230 109Q275 109 302 134T329 206Q329 257 301 282T212 308H184Q168 308 161 320T154 358V376Q154 402 161
414T184 426H203Q251 426 278 448T306 509Q306 547 286 568T225 590Q192 590 170 584T128 567Q114 559 107 559Q92 559 75 586T57 635Q57 670 113 689T251 708Q345 708 400 661T456 533Q456 482 431 444T363 387V383Q421 361 450 314T479 204Q479 106 417 49T253
-8Q209 -8 159 0Z" />
<glyph unicode="4" glyph-name="four" horiz-adv-x="535" d="M310 -2T310 30V142H48Q36 142 24 177T11 235Q11 242 13 246L310 683Q318 695 332 698T371 702H398Q458 702 458 670V259H496Q512 259 519 247T526 209V192Q526 166 519 154T496 142H458V30Q458 -2
398 -2H370Q310 -2 310 30ZM310 259V453Q310 468 321 506L317 507L160 259H310Z" />
<glyph unicode="5" glyph-name="five" horiz-adv-x="535" d="M179 -8T134 1T64 27T38 64Q38 73 47 92T68 127T92 143Q95 143 117 134T169 117T233 109Q282 109 311 136T340 212Q340 267 311 295T215 323H106Q85 323 77 332T69 363L88 660Q90 681 99 690T130 700H425Q441
700 448 688T455 650V623Q455 602 448 593T425 583H223L213 440H239Q361 440 425 389T490 216Q490 136 453 86T358 14T234 -8Q179 -8 134 1Z" />
<glyph unicode="6" glyph-name="six" horiz-adv-x="535" d="M208 -8T155 18T67 103T33 253Q33 424 109 524T272 664T387 704Q403 704 414 689T431 653T437 621Q437 610 435 606T424 600Q348 577 290 526T207 403Q253 428 307 428Q350 428 395 407T472 339T504
216Q504 139 470 89T383 16T269 -8Q208 -8 155 18ZM306 109T330 138T355 212Q355 258 331 284T264 311Q228 311 185 287Q184 272 184 241Q184 171 207 140T270 109Q306 109 330 138Z" />
<glyph unicode="7" glyph-name="seven" horiz-adv-x="535" d="M75 -2T75 17Q75 24 81 36L329 583H68Q52 583 45 595T38 633V650Q38 676 45 688T68 700H464Q472 700 483 667T494 610Q494 603 492 597L229 18Q224 7 210 3T171 -2H134Q75 -2 75 17Z" />
<glyph unicode="8" glyph-name="eight" horiz-adv-x="535" d="M189 -8T135 20T55 95T29 201Q29 268 57 313T130 375Q95 399 76 433T56 519Q56 570 80 613T155 682T276 708Q339 708 386 685T458 622T483 534Q483 475 461 442T396 385Q506 335 506 192Q506 142 482
97T405 22T271 -8Q189 -8 135 20ZM339 468T339 524Q339 554 319 572T271 591Q242 591 222 573T202 524Q202 489 223 469T285 432Q339 468 339 524ZM310 109T333 137T356 200Q356 237 340 260T300 297T233 326Q206 306 192 279T178 210Q178 164 202 137T269 109Q310
109 333 137Z" />
<glyph unicode="9" glyph-name="nine" horiz-adv-x="535" d="M130 -5T119 10T102 46T96 78Q96 89 98 93T109 99Q185 122 243 173T326 296Q280 271 226 271Q183 271 138 292T61 360T29 483Q29 560 63 610T150 683T264 707Q325 707 378 681T466 596T500 446Q500
275 424 175T261 35T146 -5Q130 -5 119 10ZM305 388T348 412Q349 427 349 458Q349 528 326 559T263 590Q227 590 203 561T178 487Q178 441 202 415T269 388Q305 388 348 412Z" />
<glyph unicode=":" glyph-name="colon" horiz-adv-x="198" d="M22 369T22 401V493Q22 525 82 525H114Q174 525 174 493V401Q174 369 114 369H82Q22 369 22 401ZM22 -2T22 30V122Q22 154 82 154H114Q174 154 174 122V30Q174 -2 114 -2H82Q22 -2 22 30Z" />
<glyph unicode=";" glyph-name="semicolon" horiz-adv-x="198" d="M22 369T22 401V493Q22 525 82 525H114Q174 525 174 493V401Q174 369 114 369H82Q22 369 22 401ZM20 -125T6 -120T-9 -103Q-9 -93 0 -70Q16 -31 25 7T35 110Q35 154 95 154H114Q144 154 159 142T174
110Q174 57 150 3T92 -88T36 -125Q20 -125 6 -120Z" />
<glyph unicode="&lt;" glyph-name="less" horiz-adv-x="560" d="M494 10T486 14L66 194Q51 201 45 210T38 236V255Q38 271 44 280T66 297L485 476Q491 479 500 479Q515 479 515 438V422Q515 373 485 361L193 245L486 129Q516 117 516 68V52Q516 10 501 10Q494 10 486 14Z" />
<glyph unicode="=" glyph-name="equal" horiz-adv-x="560" d="M55 267T48 279T41 317V324Q41 350 48 362T71 374H489Q505 374 512 362T519 324V317Q519 291 512 279T489 267H71Q55 267 48 279ZM55 86T48 98T41 136V143Q41 169 48 181T71 193H489Q505 193 512 181T519
143V136Q519 110 512 98T489 86H71Q55 86 48 98Z" />
<glyph unicode="&gt;" glyph-name="greater" horiz-adv-x="560" d="M38 10T38 52V68Q38 117 68 129L361 245L69 361Q39 373 39 422V438Q39 479 54 479Q63 479 69 476L488 297Q503 290 509 281T516 255V236Q516 220 510 211T488 194L68 14Q60 10 53 10Q38 10 38 52Z" />
<glyph unicode="?" glyph-name="question" horiz-adv-x="445" d="M149 222T138 228T126 251Q126 291 144 326T194 399Q209 417 224 432Q253 464 267 483T281 520Q281 576 207 576Q181 576 161 570T117 553Q101 545 95 545Q82 545 68 560T43 596T32 627Q32 667
91 687T220 708Q321 708 379 660T437 530Q437 475 412 438T343 362L326 347Q291 316 274 296T251 249Q248 234 236 228T198 222H175Q149 222 138 228ZM110 -2T110 30V122Q110 154 170 154H202Q262 154 262 122V30Q262 -2 202 -2H170Q110 -2 110 30Z" />
<glyph unicode="@" glyph-name="at" horiz-adv-x="974" d="M634 708T709 668T825 554T867 383Q867 294 836 220T752 102T634 58Q590 58 560 77T520 123Q503 94 473 76T407 58Q345 58 309 105T272 239Q272 318 295 379T361 474T457 508Q489 508 515 494T559 463Q565
486 575 494T611 503H623Q670 503 670 477L661 396Q639 191 639 177Q639 141 674 141Q708 141 738 174T785 263T803 383Q803 464 770 525T675 620T534 654Q428 654 340 599T200 449T148 240Q148 149 181 79T273 -30T410 -69Q453 -69 481 -63T535 -47Q556 -40 564
-40Q578 -40 578 -73Q578 -99 522 -111T410 -123Q314 -123 240 -78T125 50T84 240Q84 370 143 477T306 646T534 708Q634 708 709 668ZM523 267T527 307T540 387Q515 410 486 410Q444 410 421 368T397 247Q397 159 454 159Q488 159 519 207Q523 267 527 307Z" />
<glyph unicode="A" glyph-name="A" horiz-adv-x="613" d="M0 -2T0 20Q0 24 4 38L224 681Q232 702 281 702H333Q383 702 390 681L610 38Q613 28 613 20Q613 -2 563 -2H519Q470 -2 463 19L423 141H187L147 19Q140 -2 101 -2H61Q0 -2 0 20ZM380 273L323 451Q316 471
308 515H304Q303 509 300 489T289 451L230 273H380Z" />
<glyph unicode="B" glyph-name="B" horiz-adv-x="593" d="M95 0T86 9T76 40V660Q76 681 85 690T116 700H314Q436 700 493 653T550 523Q550 473 520 432T442 371L443 367Q502 355 540 308T578 203Q578 105 516 53T328 0H116Q95 0 86 9ZM299 421Q343 421 367 442T392
496Q392 570 301 570H230V421H299ZM328 131Q372 131 396 152T420 212Q420 251 392 270T312 290H230V131H328Z" />
<glyph unicode="C" glyph-name="C" horiz-adv-x="619" d="M206 -8T126 79T45 352Q45 708 379 708Q429 708 481 698T562 670Q588 655 588 638Q588 624 577 602T551 562T523 544Q520 544 499 553T448 569T376 576Q288 576 246 520T203 351Q203 123 374 123Q419 123
452 132T516 155Q532 163 538 163Q553 163 566 146T588 108T597 76Q597 50 562 30Q529 11 475 2T374 -8Q206 -8 126 79Z" />
<glyph unicode="D" glyph-name="D" horiz-adv-x="695" d="M95 0T86 9T76 40V660Q76 681 85 690T116 700H330Q485 700 567 610T650 350Q650 181 568 91T330 0H116Q95 0 86 9ZM330 131Q410 131 451 187T492 350Q492 457 451 513T330 569H231V131H330Z" />
<glyph unicode="E" glyph-name="E" horiz-adv-x="546" d="M95 0T86 9T76 40V660Q76 681 85 690T116 700H467Q483 700 490 688T497 650V619Q497 593 490 581T467 569H230V424H440Q456 424 463 412T470 374V343Q470 317 463 305T440 293H230V131H468Q484 131 491
119T498 81V50Q498 24 491 12T468 0H116Q95 0 86 9Z" />
<glyph unicode="F" glyph-name="F" horiz-adv-x="503" d="M76 -2T76 30V660Q76 681 85 690T116 700H445Q461 700 468 688T475 650V619Q475 593 468 581T445 569H230V423H438Q454 423 461 411T468 373V342Q468 316 461 304T438 292H230V30Q230 -2 170 -2H136Q76 -2 76 30Z" />
<glyph unicode="G" glyph-name="G" horiz-adv-x="672" d="M588 389T597 380T607 349V71Q607 26 532 9T374 -8Q206 -8 126 79T45 352Q45 708 379 708Q425 708 475 699T559 674T593 638Q593 624 582 602T556 562T528 544Q525 544 503 553T450 569T376 576Q288 576
246 520T203 351Q203 123 374 123Q414 123 452 130V257H364Q348 257 341 269T334 307V339Q334 365 341 377T364 389H567Q588 389 597 380Z" />
<glyph unicode="H" glyph-name="H" horiz-adv-x="733" d="M76 -2T76 30V670Q76 702 136 702H171Q231 702 231 670V423H501V670Q501 702 561 702H596Q656 702 656 670V30Q656 -2 596 -2H561Q501 -2 501 30V291H231V30Q231 -2 171 -2H136Q76 -2 76 30Z" />
<glyph unicode="I" glyph-name="I" horiz-adv-x="283" d="M64 -3T64 30V670Q64 703 124 703H159Q219 703 219 670V30Q219 -3 159 -3H124Q64 -3 64 30Z" />
<glyph unicode="J" glyph-name="J" horiz-adv-x="402" d="M84 -8T42 1T0 38Q0 61 10 95T41 131Q45 131 60 127T97 123Q142 123 161 147T181 227V670Q181 703 241 703H276Q336 703 336 670V202Q336 103 284 48T124 -8Q84 -8 42 1Z" />
<glyph unicode="K" glyph-name="K" horiz-adv-x="576" d="M69 -2T69 30V670Q69 702 129 702H164Q224 702 224 670V402L228 401L402 683Q413 702 462 702H509Q565 702 565 687Q565 678 557 666L364 370L583 34Q591 22 591 13Q591 -2 535 -2H477Q427 -2 416 17L228
321L224 320V30Q224 -2 164 -2H129Q69 -2 69 30Z" />
<glyph unicode="L" glyph-name="L" horiz-adv-x="484" d="M95 0T86 9T76 40V670Q76 702 136 702H170Q230 702 230 670V131H446Q462 131 469 119T476 81V50Q476 24 469 12T446 0H116Q95 0 86 9Z" />
<glyph unicode="M" glyph-name="M" horiz-adv-x="843" d="M381 167T367 186L244 406Q231 428 222 445L218 444V395V30Q218 -2 158 -2H129Q69 -2 69 30V670Q69 702 129 702H182Q230 702 245 675L411 379L421 362L430 379L599 675Q614 702 662 702H714Q774 702 774
670V30Q774 -2 714 -2H685Q625 -2 625 30V395V444L621 445Q612 428 599 406L476 186Q462 167 436 167H407Q381 167 367 186Z" />
<glyph unicode="N" glyph-name="N" horiz-adv-x="719" d="M69 -2T69 30V670Q69 702 129 702H172Q196 702 212 697T238 675L463 328Q483 299 499 269L503 270Q501 293 501 338V670Q501 702 561 702H590Q650 702 650 670V30Q650 -2 590 -2H552Q528 -2 512 3T486
25L256 377Q236 406 220 436L216 435Q218 412 218 367V30Q218 -2 158 -2H129Q69 -2 69 30Z" />
<glyph unicode="O" glyph-name="O" horiz-adv-x="731" d="M211 -8T128 84T45 350Q45 523 128 615T366 708Q521 708 603 616T686 350Q686 177 604 85T366 -8Q211 -8 128 84ZM446 123T487 181T528 350Q528 461 487 518T366 576Q286 576 245 519T203 350Q203 239
244 181T366 123Q446 123 487 181Z" />
<glyph unicode="P" glyph-name="P" horiz-adv-x="570" d="M69 -2T69 30V660Q69 681 78 690T109 700H319Q413 700 485 655T557 481Q557 393 515 345T421 279T329 262H223V30Q223 -2 163 -2H129Q69 -2 69 30ZM312 394Q348 394 373 413T399 481Q399 530 374 549T312
569H223V394H312Z" />
<glyph unicode="Q" glyph-name="Q" horiz-adv-x="731" d="M637 -146T611 -136T575 -122Q504 -93 227 16Q138 51 92 136T45 350Q45 523 128 615T366 708Q521 708 603 616T686 350Q686 232 646 151T529 31V27L682 -28Q696 -33 696 -44Q696 -54 688 -79T668 -125T641
-146Q637 -146 611 -136ZM446 119T487 178T528 350Q528 461 487 518T366 576Q286 576 245 519T203 350Q203 237 244 178T366 119Q446 119 487 178Z" />
<glyph unicode="R" glyph-name="R" horiz-adv-x="610" d="M69 -2T69 30V660Q69 681 78 690T109 700H304Q553 700 553 512Q553 456 522 415T436 353V349Q455 342 475 316T508 257L596 37Q601 24 601 18Q601 9 586 4T541 -2H500Q451 -2 442 19L363 214Q346 247 327
260T262 274H223V30Q223 -2 163 -2H129Q69 -2 69 30ZM318 407Q349 407 372 432T395 493Q395 528 373 548T311 569H223V407H318Z" />
<glyph unicode="S" glyph-name="S" horiz-adv-x="500" d="M186 -8T133 6T50 42Q22 61 22 80Q22 95 33 116T59 153T84 169Q90 169 112 157Q144 141 170 132T231 123Q270 123 297 138T325 193Q325 225 300 243T217 285L171 305Q108 335 72 379T36 506Q36 574 69
619T157 686T273 708Q324 708 365 698T431 670Q453 654 453 638Q453 624 444 603T422 567T398 551Q393 551 382 556T362 564Q326 576 287 576Q235 576 215 559T194 520Q194 494 208 477T242 450T301 422Q358 398 394 377T456 315T483 211Q483 134 451 85T367 14T257
-8Q186 -8 133 6Z" />
<glyph unicode="T" glyph-name="T" horiz-adv-x="549" d="M197 -2T197 30V569H38Q22 569 15 581T8 619V650Q8 676 15 688T38 700H511Q527 700 534 688T541 650V619Q541 593 534 581T511 569H352V30Q352 -2 292 -2H257Q197 -2 197 30Z" />
<glyph unicode="U" glyph-name="U" horiz-adv-x="712" d="M218 -8T142 55T66 234V670Q66 702 126 702H160Q220 702 220 670V244Q220 191 258 157T356 123Q416 123 454 157T493 244V670Q493 702 553 702H586Q646 702 646 670V234Q646 119 570 56T356 -8Q218 -8 142 55Z" />
<glyph unicode="V" glyph-name="V" horiz-adv-x="617" d="M232 -2T225 19L9 662Q5 676 5 680Q5 702 66 702H99Q149 702 158 673L293 240L304 205H308L319 240L458 673Q468 702 517 702H548Q608 702 608 680Q608 673 605 662L389 19Q382 -2 333 -2H281Q232 -2 225 19Z" />
<glyph unicode="W" glyph-name="W" horiz-adv-x="882" d="M162 -2T156 19L-2 661Q-4 667 -4 676Q-4 702 58 702H84Q144 702 151 671L226 349L246 258Q249 241 257 205Q262 236 270 269T282 314Q284 323 286 332T291 349L373 681Q376 693 389 697T428 702H466Q491
702 504 698T521 681L600 349Q617 276 634 198L654 286L668 349L746 671Q753 702 813 702H824Q886 702 886 676Q886 667 884 661L721 19Q719 9 704 4T666 -2H593Q571 -2 556 3T538 19L456 365L440 433L423 365L338 19Q336 9 321 4T283 -2H211Q162 -2 156 19Z" />
<glyph unicode="X" glyph-name="X" horiz-adv-x="611" d="M8 -2T8 17Q8 26 18 42L224 365L41 658Q31 675 31 683Q31 692 47 697T95 702H136Q185 702 196 683L310 497L430 683Q438 695 452 698T491 702H530Q593 702 593 683Q593 672 583 658L394 363L594 42Q603
27 603 17Q603 -2 540 -2H501Q452 -2 441 17L308 232L170 17Q162 5 149 2T109 -2H71Q8 -2 8 17Z" />
<glyph unicode="Y" glyph-name="Y" horiz-adv-x="559" d="M203 -2T203 30V336L4 657Q-6 674 -6 682Q-6 702 58 702H101Q150 702 161 683L283 469L406 683Q417 702 466 702H502Q565 702 565 682Q565 672 556 657L357 333V30Q357 -2 297 -2H263Q203 -2 203 30Z" />
<glyph unicode="Z" glyph-name="Z" horiz-adv-x="616" d="M54 0T41 33T27 89Q27 95 29 99L364 569H86Q70 569 63 581T56 619V650Q56 676 63 688T86 700H543Q554 700 567 665T580 608Q580 602 579 600L245 131H550Q566 131 573 119T580 81V50Q580 24 573 12T550
0H66Q54 0 41 33Z" />
<glyph unicode="[" glyph-name="bracketleft" horiz-adv-x="291" d="M84 -138T75 -129T65 -98V728Q65 749 74 758T105 768H231Q247 768 254 759T261 728V713Q261 692 254 683T231 673H180V-43H231Q247 -43 254 -52T261 -83V-98Q261 -119 254 -128T231 -138H105Q84
-138 75 -129Z" />
<glyph unicode="\" glyph-name="backslash" horiz-adv-x="361" d="M245 -22T235 8L5 672Q2 680 2 685Q2 702 45 702H68Q118 702 128 672L359 8Q362 1 362 -6Q362 -22 319 -22H295Q245 -22 235 8Z" />
<glyph unicode="]" glyph-name="bracketright" horiz-adv-x="291" d="M45 -138T38 -129T31 -98V-83Q31 -62 38 -53T61 -43H112V673H61Q45 673 38 682T31 713V728Q31 749 38 758T61 768H187Q208 768 217 759T227 728V-98Q227 -119 218 -128T187 -138H61Q45 -138 38 -129Z" />
<glyph unicode="^" glyph-name="asciicircum" horiz-adv-x="450" d="M35 318T35 333Q35 336 39 348L168 656Q180 686 210 686H241Q271 686 283 656L412 348Q416 340 416 333Q416 318 384 318H363Q324 318 311 348L225 555L139 348Q126 318 88 318H67Q35 318 35 333Z" />
<glyph unicode="_" glyph-name="underscore" horiz-adv-x="534" d="M-6 -143T-13 -131T-20 -93V-86Q-20 -60 -13 -48T10 -36H525Q541 -36 548 -48T555 -86V-93Q555 -119 548 -131T525 -143H10Q-6 -143 -13 -131Z" />
<glyph unicode="`" glyph-name="grave" horiz-adv-x="320" d="M201 575T185 582T158 600Q142 618 91 672Q66 699 60 706T54 720Q54 728 68 731T114 734Q184 734 199 707Q201 703 240 637Q251 619 257 607T264 590Q264 582 258 579T233 575Q201 575 185 582Z" />
<glyph unicode="a" glyph-name="a" horiz-adv-x="545" d="M113 -8T78 32T42 138Q42 218 100 271T329 324V357Q329 386 311 400T251 414Q217 414 192 407T146 391T123 382Q113 382 101 397T80 431T71 462Q71 479 96 495T165 521T262 531Q375 531 426 487T477 364V176Q477
130 479 106T486 53Q489 40 489 31Q489 15 449 7T377 -1Q359 -1 352 13T342 45T337 68Q331 57 313 40T263 7T190 -8Q113 -8 78 32ZM267 109T292 127T329 172V227Q189 227 189 153Q189 133 202 121T239 109Q267 109 292 127Z" />
<glyph unicode="b" glyph-name="b" horiz-adv-x="569" d="M295 -8T260 13T206 67Q199 35 196 24Q192 9 178 4T138 -2H126Q66 -2 66 30V722Q66 754 126 754H154Q214 754 214 722V500Q257 531 316 531Q416 531 471 459T527 262Q527 177 503 116T437 24T340 -8Q295
-8 260 13ZM377 113T377 262Q377 414 284 414Q248 414 214 395V172Q248 113 296 113Q377 113 377 262Z" />
<glyph unicode="c" glyph-name="c" horiz-adv-x="485" d="M166 -8T104 57T42 258Q42 394 104 462T299 531Q360 531 412 513T465 462Q465 447 445 416T412 385Q408 385 394 392Q374 402 355 408T307 414Q248 414 221 377T194 262Q194 184 219 147T301 109Q327 109
347 114T381 125T399 132Q415 138 417 138Q427 138 439 124T460 91T469 62Q469 37 436 21T360 -1T294 -8Q166 -8 104 57Z" />
<glyph unicode="d" glyph-name="d" horiz-adv-x="565" d="M175 -8T133 23T66 116T42 262Q42 386 97 458T253 531Q312 531 355 500V722Q355 754 415 754H443Q503 754 503 722V176Q503 130 505 106T512 53Q515 40 515 31Q515 15 475 7T403 -1Q385 -1 378 13T368
44T363 67Q345 34 310 13T229 -8Q175 -8 133 23ZM321 113T355 172V395Q321 414 285 414Q192 414 192 262Q192 113 273 113Q321 113 355 172Z" />
<glyph unicode="e" glyph-name="e" horiz-adv-x="539" d="M171 -8T107 62T42 258Q42 399 106 465T285 531Q396 531 448 459T501 273Q501 261 481 238T450 214H195Q200 157 229 133T310 109Q338 109 361 115T409 132Q425 140 431 140Q441 140 453 126T474 93T483
64Q483 41 452 25T378 0T303 -8Q171 -8 107 62ZM357 313Q357 359 339 386T285 414Q211 414 195 313H357Z" />
<glyph unicode="f" glyph-name="f" horiz-adv-x="325" d="M79 -2T79 30V406H61Q45 406 38 418T31 456V473Q31 499 38 511T61 523H79V598Q79 760 225 760Q325 760 325 711Q325 705 321 687T310 654T294 639Q288 639 278 641T263 643Q244 643 236 633T227 600V523H277Q293
523 300 511T307 473V456Q307 430 300 418T277 406H227V30Q227 -2 167 -2H139Q79 -2 79 30Z" />
<glyph unicode="g" glyph-name="g" horiz-adv-x="546" d="M24 -212T24 -74Q24 -35 47 -5T115 42L116 46Q95 56 84 76T73 121Q73 146 88 167T133 204Q52 249 52 353Q52 444 111 487T267 531Q306 531 344 523H505Q521 523 528 511T535 473V456Q535 409 511 409Q503
409 490 410T468 413L466 409Q473 400 477 384T482 353Q482 264 426 220T278 176Q217 176 217 149Q217 132 238 126T310 111Q346 107 365 103Q436 89 478 58T520 -42Q520 -93 488 -131T398 -191T262 -212Q24 -212 24 -74ZM300 283T321 300T342 353Q342 389 321
406T267 424Q234 424 213 407T192 353Q192 318 213 301T267 283Q300 283 321 300ZM324 -95T350 -82T376 -46Q376 -23 343 -13T222 4Q197 -5 183 -19T168 -50Q168 -71 193 -83T273 -95Q324 -95 350 -82Z" />
<glyph unicode="h" glyph-name="h" horiz-adv-x="565" d="M66 -2T66 30V722Q66 754 126 754H154Q214 754 214 722V463Q239 493 275 512T355 531Q431 531 468 492T506 369V30Q506 -2 446 -2H418Q358 -2 358 30V347Q358 409 294 409Q267 409 247 392T214 351V30Q214
-2 154 -2H126Q66 -2 66 30Z" />
<glyph unicode="i" glyph-name="i" horiz-adv-x="265" d="M59 588T59 626V697Q59 734 133 734Q207 734 207 697V626Q207 588 133 588Q59 588 59 626ZM59 -2T59 30V493Q59 525 119 525H147Q207 525 207 493V30Q207 -2 147 -2H119Q59 -2 59 30Z" />
<glyph unicode="j" glyph-name="j" horiz-adv-x="276" d="M70 588T70 626V697Q70 734 144 734Q218 734 218 697V626Q218 588 144 588Q70 588 70 626ZM13 -212T-9 -201T-32 -160Q-32 -140 -21 -116T4 -91Q9 -91 18 -93T34 -95Q53 -95 61 -85T70 -52V493Q70 525
130 525H158Q218 525 218 493V-50Q218 -129 178 -170T72 -212Q13 -212 -9 -201Z" />
<glyph unicode="k" glyph-name="k" horiz-adv-x="521" d="M516 22T516 13Q516 -2 459 -2H417Q368 -2 357 17L218 247L214 246V30Q214 -2 154 -2H126Q66 -2 66 30V722Q66 754 126 754H154Q214 754 214 722V326L218 325L339 506Q347 518 361 521T400 525H437Q493
525 493 510Q493 502 484 490L345 292L508 34Q516 22 516 13Z" />
<glyph unicode="l" glyph-name="l" horiz-adv-x="297" d="M63 -8T63 154V722Q63 754 123 754H151Q211 754 211 722V152Q211 129 219 119T247 109Q252 109 260 111T274 113Q283 113 290 98T301 65T305 41Q305 -8 209 -8Q63 -8 63 154Z" />
<glyph unicode="m" glyph-name="m" horiz-adv-x="848" d="M711 531T746 492T782 369V30Q782 -2 722 -2H694Q634 -2 634 30V347Q634 378 621 393T575 409Q529 409 496 352V30Q496 -2 436 -2H408Q348 -2 348 30V347Q348 378 335 393T289 409Q262 409 242 392T210
351V30Q210 -2 150 -2H122Q62 -2 62 30V347Q62 391 60 414T53 467Q50 481 50 488Q50 504 90 512T162 520Q180 520 187 507T197 477T202 455Q226 487 265 509T350 531Q402 531 434 513T482 455Q507 487 548 509T636 531Q711 531 746 492Z" />
<glyph unicode="n" glyph-name="n" horiz-adv-x="557" d="M62 -2T62 30V347Q62 391 60 414T53 467Q50 481 50 488Q50 504 90 512T162 520Q180 520 187 507T197 477T202 455Q226 487 266 509T351 531Q426 531 462 492T498 369V30Q498 -2 438 -2H410Q350 -2 350
30V347Q350 378 336 393T290 409Q263 409 243 392T210 351V30Q210 -2 150 -2H122Q62 -2 62 30Z" />
<glyph unicode="o" glyph-name="o" horiz-adv-x="569" d="M166 -8T104 61T42 262Q42 393 104 462T285 531Q404 531 465 462T527 262Q527 131 466 62T285 -8Q166 -8 104 61ZM332 109T354 147T377 262Q377 338 355 376T285 414Q238 414 215 376T192 262Q192 109
285 109Q332 109 354 147Z" />
<glyph unicode="p" glyph-name="p" horiz-adv-x="573" d="M70 -206T70 -174V347Q70 391 68 414T61 467Q58 481 58 488Q58 504 98 512T170 520Q188 520 195 507T205 478T210 456Q228 489 263 510T344 531Q398 531 440 500T507 407T531 261Q531 137 476 65T320 -8Q261
-8 218 23V-174Q218 -206 158 -206H130Q70 -206 70 -174ZM381 109T381 261Q381 410 300 410Q252 410 218 351V128Q252 109 288 109Q381 109 381 261Z" />
<glyph unicode="q" glyph-name="q" horiz-adv-x="566" d="M360 -206T360 -174V23Q317 -8 258 -8Q156 -8 99 64T42 261Q42 346 66 407T134 499T234 531Q279 531 314 510T368 456L378 499Q382 514 395 519T436 525H448Q508 525 508 493V-174Q508 -206 448 -206H420Q360
-206 360 -174ZM326 109T360 128V351Q326 410 278 410Q192 410 192 261Q192 109 290 109Q326 109 360 128Z" />
<glyph unicode="r" glyph-name="r" horiz-adv-x="366" d="M62 -2T62 30V347Q62 391 60 414T53 467Q50 481 50 488Q50 504 90 512T162 520Q180 520 187 507T197 477T202 455Q221 490 246 510T311 531Q343 531 355 515T368 477Q368 456 359 425T337 393Q331 393
316 397T290 401Q263 401 243 386T210 351V30Q210 -2 150 -2H122Q62 -2 62 30Z" />
<glyph unicode="s" glyph-name="s" horiz-adv-x="413" d="M135 -8T83 11T31 60Q31 80 50 108T84 137Q92 137 106 129Q127 120 144 115T185 109Q213 109 228 120T243 151Q243 169 232 180T208 197T157 217Q106 237 75 269T43 367Q43 444 92 487T225 531Q278 531
326 516T375 473Q375 454 360 424T332 394Q328 394 303 404T246 415Q193 415 193 380Q193 358 210 346T265 319Q271 316 284 311T306 301Q346 282 369 250T393 163Q393 85 341 39T197 -8Q135 -8 83 11Z" />
<glyph unicode="t" glyph-name="t" horiz-adv-x="342" d="M77 -8T77 154V406H61Q45 406 38 418T31 456V473Q31 499 38 511T61 523H77L90 618Q95 650 144 650H175Q225 650 225 618V523H274Q290 523 297 511T304 473V456Q304 430 297 418T274 406H225V152Q225 129
233 119T261 109Q266 109 274 111T288 113Q297 113 304 98T315 65T319 41Q319 -8 223 -8Q77 -8 77 154Z" />
<glyph unicode="u" glyph-name="u" horiz-adv-x="557" d="M131 -8T95 31T59 154V493Q59 525 119 525H147Q207 525 207 493V176Q207 145 221 130T267 114Q294 114 314 131T347 172V493Q347 525 407 525H435Q495 525 495 493V176Q495 130 497 106T504 53Q507 40
507 31Q507 15 467 7T395 -1Q377 -1 370 13T360 45T355 68Q331 36 292 14T206 -8Q131 -8 95 31Z" />
<glyph unicode="v" glyph-name="v" horiz-adv-x="485" d="M178 -2T170 19L11 485Q7 499 7 503Q7 525 68 525H101Q150 525 157 504L216 319Q221 303 235 241L244 198H248Q266 286 276 319L335 504Q342 525 391 525H416Q476 525 476 503Q476 496 473 485L314 19Q307
-2 258 -2H226Q178 -2 170 19Z" />
<glyph unicode="w" glyph-name="w" horiz-adv-x="747" d="M152 -2T146 19L20 484Q18 490 18 499Q18 525 80 525Q120 525 138 520T159 504L223 240Q224 236 225 225T228 206L233 175H237L242 200Q249 237 250 243L314 504Q320 525 369 525H393Q415 525 430 520T448
504L512 237Q514 229 515 219T519 200L524 171H526Q528 178 532 204Q540 242 539 240L603 504Q608 525 662 525Q724 525 724 499Q724 490 722 484L604 19Q602 9 587 4T549 -2H500Q451 -2 445 19L384 257Q383 261 382 272T379 291L375 323H371Q368 301 367 290Q366
283 365 274T362 256L305 19Q303 9 288 4T250 -2H201Q152 -2 146 19Z" />
<glyph unicode="x" glyph-name="x" horiz-adv-x="485" d="M5 -2T5 16Q5 24 16 41L167 265L25 481Q14 498 14 507Q14 525 77 525H109Q135 525 148 522T170 506L231 407L246 383L263 409L325 506Q333 518 346 521T386 525H415Q478 525 478 507Q478 499 467 482L321
266L469 42Q480 25 480 16Q480 -2 417 -2H385Q359 -2 346 1T324 17L255 127L242 148L229 127L159 17Q151 5 138 2T98 -2H68Q5 -2 5 16Z" />
<glyph unicode="y" glyph-name="y" horiz-adv-x="481" d="M477 525T477 503Q477 496 474 485L245 -185Q238 -206 189 -206H172Q112 -206 112 -185Q112 -176 116 -167L179 1L14 485Q10 499 10 503Q10 525 71 525H103Q152 525 159 504L218 319Q227 291 246 198H250Q270
294 278 319L337 504Q344 525 393 525H417Q477 525 477 503Z" />
<glyph unicode="z" glyph-name="z" horiz-adv-x="489" d="M47 0T37 27T27 76Q27 86 30 90L259 406H73Q57 406 50 418T43 456V473Q43 499 50 511T73 523H427Q435 523 445 495T456 446Q456 436 453 431L225 117H430Q446 117 453 105T460 67V50Q460 24 453 12T430
0H56Q47 0 37 27Z" />
<glyph unicode="{" glyph-name="braceleft" horiz-adv-x="274" d="M149 -138T122 -106T94 -22V146Q94 196 84 222T47 259Q32 268 25 279T18 309V321Q18 340 25 351T47 371Q73 382 83 408T94 484V652Q94 703 121 735T193 768H232Q248 768 255 759T262 728V714Q262
674 236 674H238Q222 674 216 666T209 638V468Q209 413 192 374T141 315Q174 296 191 257T209 162V-8Q209 -44 233 -44H234Q248 -45 255 -54T262 -84V-98Q262 -119 255 -128T232 -138H193Q149 -138 122 -106Z" />
<glyph unicode="|" glyph-name="bar" horiz-adv-x="250" d="M92 -138T80 -131T68 -108V738Q68 754 80 761T118 768H133Q159 768 171 761T183 738V-108Q183 -124 171 -131T133 -138H118Q92 -138 80 -131Z" />
<glyph unicode="}" glyph-name="braceright" horiz-adv-x="274" d="M33 -138T26 -129T19 -98V-84Q19 -63 25 -54T47 -44H48Q72 -44 72 -8V162Q72 218 89 257T140 315Q107 334 90 373T72 468V638Q72 658 66 666T45 674H44Q19 674 19 714V728Q19 749 26 758T49 768H88Q132
768 159 736T187 652V484Q187 434 197 408T234 371Q249 362 256 351T263 321V309Q263 290 256 279T234 259Q208 248 198 222T187 146V-22Q187 -73 160 -105T88 -138H49Q33 -138 26 -129Z" />
<glyph unicode="~" glyph-name="asciitilde" horiz-adv-x="547" d="M79 218Q53 225 53 245Q53 251 55 259Q66 290 96 311T168 333Q189 333 225 325T267 316Q328 301 351 300Q373 300 390 316Q407 333 423 333Q432 333 438 331L451 328Q478 321 478 301Q478 293
472 279Q463 250 434 228T364 206Q348 206 320 212T262 227Q198 245 179 246Q156 246 140 230Q124 213 107 213Q102 213 92 215L79 218Z" />
<glyph unicode="&#xa0;" glyph-name="uni00A0" horiz-adv-x="240" />
<glyph unicode="&#xa1;" glyph-name="exclamdown" horiz-adv-x="294" d="M78 369T78 401V493Q78 525 138 525H170Q230 525 230 493V401Q230 369 170 369H138Q78 369 78 401ZM78 -180T63 -173T47 -152Q47 -139 81 139Q94 244 97 268Q99 285 109 292T148 300H159Q188
300 199 293T210 268V-148Q210 -180 150 -180H107Q78 -180 63 -173Z" />
<glyph unicode="&#xa2;" glyph-name="cent" horiz-adv-x="486" d="M469 32T422 15T320 -7V-48Q320 -78 293 -78Q277 -78 270 -71T263 -48V-7Q151 0 97 66T42 258Q42 385 95 452T263 530V557Q263 587 290 587Q306 587 313 580T320 557V530Q377 527 421 509T465
462Q465 447 445 416T412 385Q408 385 394 392Q356 411 320 414V110Q351 112 373 121T399 132Q415 138 417 138Q427 138 439 124T460 91T469 62Q469 32 422 15ZM194 198T210 162T263 114V407Q227 395 211 359T194 262Q194 198 210 162Z" />
<glyph unicode="&#xa3;" glyph-name="sterling" horiz-adv-x="491" d="M37 0T28 9T18 40V59Q18 71 25 79T49 101Q71 119 82 134T94 175V311H61Q45 311 38 323T31 361V378Q31 404 38 416T61 428H94V502Q94 708 324 708Q434 708 434 663Q434 637 421 613T394 588Q391
588 373 592T330 596Q284 596 262 575T239 507V428H347Q363 428 370 416T377 378V361Q377 335 370 323T347 311H239V251Q239 158 198 117H421Q437 117 444 105T451 67V50Q451 24 444 12T421 0H58Q37 0 28 9Z" />
<glyph unicode="&#xa4;" glyph-name="currency" horiz-adv-x="534" d="M96 72T84 84L54 114Q42 126 42 139Q42 152 54 164L76 186Q49 234 49 289Q49 348 78 395L51 422Q39 434 39 447Q39 460 51 472L81 502Q93 514 106 514Q119 514 131 502L159 474Q208 500 260
500Q314 500 363 473L392 502Q404 514 417 514Q430 514 442 502L472 472Q484 460 484 447Q484 434 472 422L443 393Q471 345 471 289Q471 237 445 188L469 164Q481 152 481 139Q481 126 469 114L439 84Q427 72 414 72Q401 72 389 84L366 107Q319 78 260 78Q204
78 155 105L134 84Q122 72 109 72Q96 72 84 84ZM301 192T329 220T357 289Q357 330 329 358T260 386Q220 386 192 358T163 289Q163 249 191 221T260 192Q301 192 329 220Z" />
<glyph unicode="&#xa5;" glyph-name="yen" horiz-adv-x="559" d="M565 672T556 657L404 409H487Q503 409 510 402T517 379V364Q517 333 487 333H357V270H487Q503 270 510 263T517 240V225Q517 209 510 202T487 195H357V30Q357 -2 297 -2H263Q203 -2 203 30V195H70Q54
195 47 202T40 225V240Q40 256 47 263T70 270H203V334H70Q54 334 47 341T40 364V379Q40 395 47 402T70 409H158L4 657Q-6 674 -6 682Q-6 702 58 702H101Q150 702 161 683L283 469L406 683Q417 702 466 702H502Q565 702 565 682Q565 672 556 657Z" />
<glyph unicode="&#xa6;" glyph-name="brokenbar" horiz-adv-x="250" d="M68 380T68 412V738Q68 770 118 770H133Q183 770 183 738V412Q183 380 133 380H118Q68 380 68 412ZM68 -140T68 -108V218Q68 250 118 250H133Q183 250 183 218V-108Q183 -140 133 -140H118Q68
-140 68 -108Z" />
<glyph unicode="&#xa7;" glyph-name="section" horiz-adv-x="429" d="M161 -7T111 6T60 56Q60 63 67 81T84 115T103 130Q106 130 131 120T188 109Q242 109 242 140Q242 158 226 168T174 191Q169 194 164 195T154 199Q103 220 73 253T42 350Q42 414 79 459Q41 492
41 554Q41 626 90 667T225 708Q272 708 322 695T373 645Q373 638 366 620T349 586T330 571Q327 571 302 581T245 592Q191 592 191 561Q191 543 206 533T255 511L282 500Q332 479 361 447T391 351Q391 285 354 242Q392 206 392 147Q392 75 343 34T208 -7Q161 -7
111 6ZM261 312T261 335Q261 364 241 379T181 409Q172 392 172 366Q172 337 192 322T252 292Q261 312 261 335Z" />
<glyph unicode="&#xa8;" glyph-name="dieresis" horiz-adv-x="320" d="M11 578T11 610V670Q11 702 71 702Q131 702 131 670V610Q131 578 71 578Q11 578 11 610ZM191 578T191 610V670Q191 702 251 702Q311 702 311 670V610Q311 578 251 578Q191 578 191 610Z" />
<glyph unicode="&#xa9;" glyph-name="copyright" horiz-adv-x="739" d="M271 -8T189 40T58 170T10 350Q10 447 58 529T188 660T368 708Q465 708 547 660T678 530T726 350Q726 253 678 171T548 40T368 -8Q271 -8 189 40ZM448 56T515 95T622 202T662 350Q662 430
623 497T516 604T368 644Q288 644 221 605T114 498T74 350Q74 270 113 203T220 96T368 56Q448 56 515 95ZM287 152T242 201T197 353Q197 552 383 552Q424 552 462 541T500 513Q500 500 487 480T464 460Q462 460 442 469T382 478Q285 478 285 353Q285 225 381 225Q419
225 444 236T472 248Q484 248 494 229T505 199Q505 176 464 164T381 152Q287 152 242 201Z" />
<glyph unicode="&#xaa;" glyph-name="ordfeminine" horiz-adv-x="319" d="M77 440T60 459T42 512Q42 552 71 578T185 605V621Q185 636 176 642T146 649Q120 649 103 642T82 634Q75 634 66 649T57 674Q57 687 84 697T152 708Q258 708 258 625V531Q258 495 261 480T264
460Q264 452 244 448T208 443Q200 443 197 450T192 465T189 477Q184 467 164 454T115 440Q77 440 60 459ZM154 498T166 506T185 529V556Q115 556 115 520Q115 510 121 504T140 498Q154 498 166 506Z" />
<glyph unicode="&#xab;" glyph-name="guillemotleft" horiz-adv-x="471" d="M184 46T170 61L43 214Q34 224 31 234T27 258Q27 272 30 282T43 302L170 455Q183 469 197 469Q213 469 234 453T256 420Q256 410 247 398L137 258L247 118Q256 106 256 95Q256 80 235
63T197 46Q184 46 170 61ZM383 46T369 61L242 214Q233 224 230 234T226 258Q226 272 229 282T242 302L369 455Q382 469 396 469Q412 469 433 453T455 420Q455 410 446 398L336 258L446 118Q455 106 455 95Q455 80 434 63T396 46Q383 46 369 61Z" />
<glyph unicode="&#xac;" glyph-name="logicalnot" horiz-adv-x="560" d="M430 72T430 104V242H60Q44 242 37 254T30 292V299Q30 325 37 337T60 349H490Q511 349 520 340T530 309V104Q530 72 490 72H470Q430 72 430 104Z" />
<glyph unicode="&#xad;" glyph-name="uni00AD" horiz-adv-x="320" d="M44 212T37 224T30 262V269Q30 295 37 307T60 319H255Q271 319 278 307T285 269V262Q285 236 278 224T255 212H60Q44 212 37 224Z" />
<glyph unicode="&#xae;" glyph-name="registered" horiz-adv-x="739" d="M272 -8T190 40T59 170T11 350Q11 447 59 529T189 660T369 708Q466 708 548 660T679 530T727 350Q727 253 679 171T549 40T369 -8Q272 -8 190 40ZM449 56T516 95T623 202T663 350Q663 430
624 497T517 604T369 644Q289 644 222 605T115 498T75 350Q75 270 114 203T221 96T369 56Q449 56 516 95ZM242 156T242 174V526Q242 548 264 548H373Q512 548 512 443Q512 412 494 389T446 354V350Q457 345 469 332T487 301L536 178Q539 171 539 167Q539 156 506
156H483Q455 156 450 168L406 277Q397 295 386 302T350 310H328V174Q328 156 294 156H276Q242 156 242 174ZM381 384Q398 384 411 398T424 432Q424 452 412 463T377 475H328V384H381Z" />
<glyph unicode="&#xaf;" glyph-name="overscore" horiz-adv-x="320" d="M35 597T28 606T21 637V652Q21 673 28 682T51 692H266Q282 692 289 683T296 652V637Q296 616 289 607T266 597H51Q35 597 28 606Z" />
<glyph unicode="&#xb0;" glyph-name="degree" horiz-adv-x="345" d="M134 443T104 460T56 508T38 575Q38 611 56 641T104 690T170 708Q206 708 236 690T285 642T303 575Q303 539 285 509T237 461T170 443Q134 443 104 460ZM198 505T218 525T238 575Q238 604 218
625T170 646Q142 646 123 625T103 575Q103 546 122 526T170 505Q198 505 218 525Z" />
<glyph unicode="&#xb1;" glyph-name="plusminus" horiz-adv-x="560" d="M246 130T234 137T222 160V312H71Q55 312 48 324T41 362V369Q41 395 48 407T71 419H222V573Q222 589 234 596T272 603H286Q312 603 324 596T336 573V419H489Q505 419 512 407T519 369V362Q519
336 512 324T489 312H336V160Q336 144 324 137T286 130H272Q246 130 234 137ZM55 0T48 12T41 50V57Q41 83 48 95T71 107H489Q505 107 512 95T519 57V50Q519 24 512 12T489 0H71Q55 0 48 12Z" />
<glyph unicode="&#xb2;" glyph-name="uni00B2" horiz-adv-x="320" d="M27 293T22 311T16 344Q16 349 18 353L166 534Q188 561 188 590Q188 613 173 625T134 638Q118 638 106 633T81 620T65 612Q52 612 42 626T32 653Q32 677 67 691T148 706Q209 706 242 675T276
592Q276 542 240 497L130 361H265Q283 361 283 332V322Q283 293 265 293H33Q27 293 22 311Z" />
<glyph unicode="&#xb3;" glyph-name="uni00B3" horiz-adv-x="320" d="M105 287T63 299T21 335Q21 346 30 363T50 380Q53 380 67 373T98 361T135 356Q162 356 177 371T193 413Q193 443 177 458T124 473H108Q90 473 90 502V513Q90 542 108 542H119Q147 542 163 555T180
591Q180 613 168 625T132 638Q101 638 84 629T63 620Q54 620 44 636T33 665Q33 686 66 697T147 708Q203 708 235 680T268 605Q268 575 254 553T213 519V517Q247 504 264 477T281 412Q281 354 245 321T149 287Q105 287 63 299Z" />
<glyph unicode="&#xb4;" glyph-name="acute" horiz-adv-x="320" d="M67 575T61 578T54 590Q54 595 60 607T78 637Q117 703 119 707Q134 734 204 734Q235 734 249 731T264 720Q264 714 258 707T227 672Q176 618 160 600Q150 589 134 582T85 575Q67 575 61 578Z" />
<glyph unicode="&#xb5;" glyph-name="uni00B5" horiz-adv-x="566" d="M489 130T491 106T498 53Q501 40 501 31Q501 15 461 7T389 -1Q371 -1 364 13T354 45T349 68Q325 36 286 15T201 -8V-174Q201 -206 141 -206H113Q53 -206 53 -174V493Q53 525 113 525H141Q201
525 201 493V176Q201 145 215 130T261 114Q288 114 308 131T341 172V493Q341 525 401 525H429Q489 525 489 493V176Q489 130 491 106Z" />
<glyph unicode="&#xb6;" glyph-name="paragraph" horiz-adv-x="515" d="M257 -171T250 -164T243 -141V247Q187 253 141 285T68 366T41 473Q41 539 71 591T154 671T268 700H471Q487 700 494 693T501 668V667Q501 652 494 645T471 638H445V-141Q445 -156 438 -163T415
-171H413Q397 -171 390 -164T383 -141V638H305V-141Q305 -156 298 -163T275 -171H273Q257 -171 250 -164Z" />
<glyph unicode="&#xb7;" glyph-name="middot" horiz-adv-x="267" d="M112 289T92 309T71 359Q71 388 91 408T141 429Q170 429 190 409T211 359Q211 330 191 310T141 289Q112 289 92 309Z" />
<glyph unicode="&#xb8;" glyph-name="cedilla" horiz-adv-x="320" d="M233 -40T256 -58T279 -112Q279 -212 160 -212Q113 -212 71 -198T29 -162Q29 -140 40 -129T61 -118Q69 -118 93 -126Q128 -139 152 -139Q176 -139 176 -122Q176 -113 170 -108T149 -97Q137
-92 130 -87T123 -74Q123 -67 148 10H214L202 -36Q233 -40 256 -58Z" />
<glyph unicode="&#xb9;" glyph-name="uni00B9" horiz-adv-x="217" d="M113 293T113 312V624L34 611Q24 611 20 627T15 661Q15 675 30 678L176 704Q183 704 191 700T199 690V312Q199 293 164 293H148Q113 293 113 312Z" />
<glyph unicode="&#xba;" glyph-name="ordmasculine" horiz-adv-x="337" d="M109 441T78 475T47 575Q47 640 78 674T168 708Q227 708 257 674T288 575Q288 510 258 476T168 441Q109 441 78 475ZM192 499T202 518T213 575Q213 613 203 631T168 650Q122 650 122 575Q122
499 168 499Q192 499 202 518Z" />
<glyph unicode="&#xbb;" glyph-name="guillemotright" horiz-adv-x="471" d="M84 46T63 63T42 95Q42 106 51 118L161 258L51 398Q42 410 42 420Q42 436 63 452T101 469Q117 469 128 455L255 302Q264 292 267 282T271 258Q271 244 268 234T255 214L128 61Q116 46
101 46Q84 46 63 63ZM283 46T262 63T241 95Q241 106 250 118L360 258L250 398Q241 410 241 420Q241 436 262 452T300 469Q316 469 327 455L454 302Q463 292 466 282T470 258Q470 244 467 234T454 214L327 61Q315 46 300 46Q283 46 262 63Z" />
<glyph unicode="&#xbc;" glyph-name="onequarter" horiz-adv-x="671" d="M113 293T113 312V624L34 611Q24 611 20 627T15 661Q15 675 30 678L176 704Q183 704 191 700T199 690V312Q199 293 164 293H148Q113 293 113 312ZM112 0T112 11Q112 14 118 26L477 674Q491
700 522 700H539Q560 700 560 689Q560 683 554 674L195 26Q180 0 150 0H133Q112 0 112 11ZM522 -2T522 16V81H371Q364 81 357 101T349 135Q349 139 351 141L522 394Q527 401 535 403T557 405H573Q608 405 608 386V149H630Q647 149 647 120V110Q647 81 630 81H608V16Q608
-2 573 -2H557Q522 -2 522 16ZM522 149V261Q522 272 529 291L526 292L435 149H522Z" />
<glyph unicode="&#xbd;" glyph-name="onehalf" horiz-adv-x="746" d="M113 293T113 312V624L34 611Q24 611 20 627T15 661Q15 675 30 678L176 704Q183 704 191 700T199 690V312Q199 293 164 293H148Q113 293 113 312ZM112 0T112 11Q112 14 118 26L477 674Q491
700 522 700H539Q560 700 560 689Q560 683 554 674L195 26Q180 0 150 0H133Q112 0 112 11ZM446 0T441 18T435 51Q435 56 437 60L585 241Q607 268 607 297Q607 320 592 332T553 345Q537 345 525 340T500 327T484 319Q471 319 461 333T451 360Q451 384 486 398T567
413Q628 413 661 382T695 299Q695 249 659 204L549 68H684Q702 68 702 39V29Q702 0 684 0H452Q446 0 441 18Z" />
<glyph unicode="&#xbe;" glyph-name="threequarters" horiz-adv-x="743" d="M105 287T63 299T21 335Q21 346 30 363T50 380Q53 380 67 373T98 361T135 356Q162 356 177 371T193 413Q193 443 177 458T124 473H108Q90 473 90 502V513Q90 542 108 542H119Q147 542
163 555T180 591Q180 613 168 625T132 638Q101 638 84 629T63 620Q54 620 44 636T33 665Q33 686 66 697T147 708Q203 708 235 680T268 605Q268 575 254 553T213 519V517Q247 504 264 477T281 412Q281 354 245 321T149 287Q105 287 63 299ZM154 0T154 11Q154 14
160 26L519 674Q533 700 564 700H581Q602 700 602 689Q602 686 596 674L237 26Q222 0 192 0H175Q154 0 154 11ZM564 -2T564 16V81H413Q406 81 399 101T391 135Q391 139 393 141L564 394Q569 401 577 403T599 405H615Q650 405 650 386V149H672Q689 149 689 120V110Q689
81 672 81H650V16Q650 -2 615 -2H599Q564 -2 564 16ZM564 149V261Q564 272 571 291L568 292L477 149H564Z" />
<glyph unicode="&#xbf;" glyph-name="questiondown" horiz-adv-x="425" d="M345 525T345 493V401Q345 369 285 369H253Q193 369 193 401V493Q193 525 253 525H285Q345 525 345 493ZM306 301T317 295T329 272Q329 232 311 197T261 124Q246 106 231 91Q202 59 188
40T174 3Q174 -53 248 -53Q274 -53 294 -47T338 -30Q354 -22 360 -22Q373 -22 387 -37T412 -73T423 -104Q423 -144 364 -164T235 -185Q134 -185 76 -137T18 -7Q18 48 43 85T112 161L129 176Q164 207 181 227T204 274Q207 289 219 295T257 301H280Q306 301 317 295Z"
/>
<glyph unicode="&#xc0;" glyph-name="Agrave" horiz-adv-x="613" d="M0 -2T0 20Q0 24 4 38L224 681Q232 702 281 702H333Q383 702 390 681L610 38Q613 28 613 20Q613 -2 563 -2H519Q470 -2 463 19L423 141H187L147 19Q140 -2 101 -2H61Q0 -2 0 20ZM380 273L323
451Q316 471 308 515H304Q303 509 300 489T289 451L230 273H380ZM299 752T283 759T256 777Q240 795 189 849Q164 876 158 883T152 897Q152 905 166 908T212 911Q282 911 297 884Q299 880 338 814Q349 796 355 784T362 767Q362 759 356 756T331 752Q299 752 283
759Z" />
<glyph unicode="&#xc1;" glyph-name="Aacute" horiz-adv-x="613" d="M0 -2T0 20Q0 24 4 38L224 681Q232 702 281 702H333Q383 702 390 681L610 38Q613 28 613 20Q613 -2 563 -2H519Q470 -2 463 19L423 141H187L147 19Q140 -2 101 -2H61Q0 -2 0 20ZM380 273L323
451Q316 471 308 515H304Q303 509 300 489T289 451L230 273H380ZM269 752T263 755T256 767Q256 772 262 784T280 814Q319 880 321 884Q336 911 406 911Q437 911 451 908T466 897Q466 891 460 884T429 849Q378 795 362 777Q352 766 336 759T287 752Q269 752 263
755Z" />
<glyph unicode="&#xc2;" glyph-name="Acircumflex" horiz-adv-x="613" d="M0 -2T0 20Q0 24 4 38L224 681Q232 702 281 702H333Q383 702 390 681L610 38Q613 28 613 20Q613 -2 563 -2H519Q470 -2 463 19L423 141H187L147 19Q140 -2 101 -2H61Q0 -2 0 20ZM380 273L323
451Q316 471 308 515H304Q303 509 300 489T289 451L230 273H380ZM169 749T169 759Q169 765 175 774L240 876Q248 888 261 891T301 895H312Q338 895 351 892T373 876L438 774Q444 765 444 759Q444 749 424 749H402Q350 749 334 773L306 813L278 774Q268 759 252
754T211 749H189Q169 749 169 759Z" />
<glyph unicode="&#xc3;" glyph-name="Atilde" horiz-adv-x="613" d="M0 -2T0 20Q0 24 4 38L224 681Q232 702 281 702H333Q383 702 390 681L610 38Q613 28 613 20Q613 -2 563 -2H519Q470 -2 463 19L423 141H187L147 19Q140 -2 101 -2H61Q0 -2 0 20ZM380 273L323
451Q316 471 308 515H304Q303 509 300 489T289 451L230 273H380ZM140 760Q118 766 118 787Q118 793 120 801Q131 830 160 850T229 871Q245 871 272 864T306 856Q352 843 370 842Q388 842 403 858Q417 875 431 875Q439 875 443 873L454 870Q477 864 477 843Q477
835 474 829Q463 800 434 780T365 759Q349 759 322 766T288 774Q242 787 224 788Q205 788 191 772Q178 755 164 755Q159 755 151 757L140 760Z" />
<glyph unicode="&#xc4;" glyph-name="Adieresis" horiz-adv-x="613" d="M0 -2T0 20Q0 24 4 38L224 681Q232 702 281 702H333Q383 702 390 681L610 38Q613 28 613 20Q613 -2 563 -2H519Q470 -2 463 19L423 141H187L147 19Q140 -2 101 -2H61Q0 -2 0 20ZM380 273L323
451Q316 471 308 515H304Q303 509 300 489T289 451L230 273H380ZM157 755T157 787V847Q157 879 217 879Q277 879 277 847V787Q277 755 217 755Q157 755 157 787ZM337 755T337 787V847Q337 879 397 879Q457 879 457 847V787Q457 755 397 755Q337 755 337 787Z" />
<glyph unicode="&#xc5;" glyph-name="Aring" horiz-adv-x="613" d="M0 -2T0 20Q0 24 4 38L224 681Q232 702 281 702H333Q383 702 390 681L610 38Q613 28 613 20Q613 -2 563 -2H519Q470 -2 463 19L423 141H187L147 19Q140 -2 101 -2H61Q0 -2 0 20ZM380 273L323
451Q316 471 308 515H304Q303 509 300 489T289 451L230 273H380ZM264 727T236 755T207 826Q207 868 235 897T306 926Q348 926 377 897T406 826Q406 784 377 756T306 727Q264 727 236 755ZM321 789T332 799T343 825Q343 840 332 851T306 862Q291 862 281 851T270
825Q270 810 280 800T306 789Q321 789 332 799Z" />
<glyph unicode="&#xc6;" glyph-name="AE" horiz-adv-x="915" d="M1 -2T1 20Q1 30 5 38L326 673Q334 687 344 693T370 700H834Q850 700 857 688T864 650V619Q864 593 857 581T834 569H517L545 424H807Q823 424 830 412T837 374V343Q837 317 830 305T807 293H571L602
131H835Q851 131 858 119T865 81V50Q865 24 858 12T835 0H504Q488 0 480 7T469 30L448 141H205L145 19Q135 -2 99 -2H62Q1 -2 1 20ZM424 273L391 454V537H387L359 455L270 273H424Z" />
<glyph unicode="&#xc7;" glyph-name="Ccedilla" horiz-adv-x="619" d="M553 163T566 146T588 108T597 76Q597 50 562 30Q535 15 493 6T406 -7L399 -36Q430 -40 453 -58T476 -112Q476 -212 357 -212Q310 -212 268 -198T226 -162Q226 -140 237 -129T258 -118Q266
-118 290 -126Q325 -139 349 -139Q373 -139 373 -122Q373 -113 367 -108T346 -97Q334 -92 327 -87T320 -74Q320 -68 339 -7Q189 1 117 89T45 352Q45 708 379 708Q429 708 481 698T562 670Q588 655 588 638Q588 624 577 602T551 562T523 544Q520 544 499 553T448
569T376 576Q288 576 246 520T203 351Q203 123 374 123Q419 123 452 132T516 155Q532 163 538 163Q553 163 566 146Z" />
<glyph unicode="&#xc8;" glyph-name="Egrave" horiz-adv-x="546" d="M95 0T86 9T76 40V660Q76 681 85 690T116 700H467Q483 700 490 688T497 650V619Q497 593 490 581T467 569H230V424H440Q456 424 463 412T470 374V343Q470 317 463 305T440 293H230V131H468Q484
131 491 119T498 81V50Q498 24 491 12T468 0H116Q95 0 86 9ZM294 752T278 759T251 777Q235 795 184 849Q159 876 153 883T147 897Q147 905 161 908T207 911Q277 911 292 884Q294 880 333 814Q344 796 350 784T357 767Q357 759 351 756T326 752Q294 752 278 759Z"
/>
<glyph unicode="&#xc9;" glyph-name="Eacute" horiz-adv-x="546" d="M95 0T86 9T76 40V660Q76 681 85 690T116 700H467Q483 700 490 688T497 650V619Q497 593 490 581T467 569H230V424H440Q456 424 463 412T470 374V343Q470 317 463 305T440 293H230V131H468Q484
131 491 119T498 81V50Q498 24 491 12T468 0H116Q95 0 86 9ZM264 752T258 755T251 767Q251 772 257 784T275 814Q314 880 316 884Q331 911 401 911Q432 911 446 908T461 897Q461 891 455 884T424 849Q373 795 357 777Q347 766 331 759T282 752Q264 752 258 755Z"
/>
<glyph unicode="&#xca;" glyph-name="Ecircumflex" horiz-adv-x="546" d="M95 0T86 9T76 40V660Q76 681 85 690T116 700H467Q483 700 490 688T497 650V619Q497 593 490 581T467 569H230V424H440Q456 424 463 412T470 374V343Q470 317 463 305T440 293H230V131H468Q484
131 491 119T498 81V50Q498 24 491 12T468 0H116Q95 0 86 9ZM164 749T164 759Q164 765 170 774L235 876Q243 888 256 891T296 895H307Q333 895 346 892T368 876L433 774Q439 765 439 759Q439 749 419 749H397Q345 749 329 773L301 813L273 774Q263 759 247 754T206
749H184Q164 749 164 759Z" />
<glyph unicode="&#xcb;" glyph-name="Edieresis" horiz-adv-x="546" d="M95 0T86 9T76 40V660Q76 681 85 690T116 700H467Q483 700 490 688T497 650V619Q497 593 490 581T467 569H230V424H440Q456 424 463 412T470 374V343Q470 317 463 305T440 293H230V131H468Q484
131 491 119T498 81V50Q498 24 491 12T468 0H116Q95 0 86 9ZM152 755T152 787V847Q152 879 212 879Q272 879 272 847V787Q272 755 212 755Q152 755 152 787ZM332 755T332 787V847Q332 879 392 879Q452 879 452 847V787Q452 755 392 755Q332 755 332 787Z" />
<glyph unicode="&#xcc;" glyph-name="Igrave" horiz-adv-x="283" d="M64 -3T64 30V670Q64 703 124 703H159Q219 703 219 670V30Q219 -3 159 -3H124Q64 -3 64 30ZM134 752T118 759T91 777Q75 795 24 849Q-1 876 -7 883T-13 897Q-13 905 1 908T47 911Q117 911 132
884Q134 880 173 814Q184 796 190 784T197 767Q197 759 191 756T166 752Q134 752 118 759Z" />
<glyph unicode="&#xcd;" glyph-name="Iacute" horiz-adv-x="282" d="M64 -3T64 30V670Q64 703 124 703H159Q219 703 219 670V30Q219 -3 159 -3H124Q64 -3 64 30ZM104 752T98 755T91 767Q91 772 97 784T115 814Q154 880 156 884Q171 911 241 911Q272 911 286 908T301
897Q301 891 295 884T264 849Q213 795 197 777Q187 766 171 759T122 752Q104 752 98 755Z" />
<glyph unicode="&#xce;" glyph-name="Icircumflex" horiz-adv-x="282" d="M319 -3T319 30V670Q319 703 379 703H414Q474 703 474 670V30Q474 -3 414 -3H379Q319 -3 319 30ZM4 749T4 759Q4 765 10 774L75 876Q83 888 96 891T136 895H147Q173 895 186 892T208 876L273
774Q279 765 279 759Q279 749 259 749H237Q185 749 169 773L141 813L113 774Q103 759 87 754T46 749H24Q4 749 4 759Z" />
<glyph unicode="&#xcf;" glyph-name="Idieresis" horiz-adv-x="283" d="M64 -3T64 30V670Q64 703 124 703H159Q219 703 219 670V30Q219 -3 159 -3H124Q64 -3 64 30ZM-8 755T-8 787V847Q-8 879 52 879Q112 879 112 847V787Q112 755 52 755Q-8 755 -8 787ZM172 755T172
787V847Q172 879 232 879Q292 879 292 847V787Q292 755 232 755Q172 755 172 787Z" />
<glyph unicode="&#xd0;" glyph-name="Eth" horiz-adv-x="696" d="M485 700T567 610T650 350Q650 181 568 91T330 0H116Q95 0 86 9T76 40V291H42Q26 291 19 303T12 341V371Q12 397 19 409T42 421H76V660Q76 681 85 690T116 700H330Q485 700 567 610ZM410 131T451
187T492 350Q492 457 451 513T330 569H231V421H285Q301 421 308 409T315 371V341Q315 315 308 303T285 291H231V131H330Q410 131 451 187Z" />
<glyph unicode="&#xd1;" glyph-name="Ntilde" horiz-adv-x="719" d="M69 -2T69 30V670Q69 702 129 702H172Q196 702 212 697T238 675L463 328Q483 299 499 269L503 270Q501 293 501 338V670Q501 702 561 702H590Q650 702 650 670V30Q650 -2 590 -2H552Q528 -2
512 3T486 25L256 377Q236 406 220 436L216 435Q218 412 218 367V30Q218 -2 158 -2H129Q69 -2 69 30ZM193 760Q171 766 171 787Q171 793 173 801Q184 830 213 850T282 871Q298 871 325 864T359 856Q405 843 423 842Q441 842 456 858Q470 875 484 875Q492 875 496
873L507 870Q530 864 530 843Q530 835 527 829Q516 800 487 780T418 759Q402 759 375 766T341 774Q295 787 277 788Q258 788 244 772Q231 755 217 755Q212 755 204 757L193 760Z" />
<glyph unicode="&#xd2;" glyph-name="Ograve" horiz-adv-x="731" d="M211 -8T128 84T45 350Q45 523 128 615T366 708Q521 708 603 616T686 350Q686 177 604 85T366 -8Q211 -8 128 84ZM446 123T487 181T528 350Q528 461 487 518T366 576Q286 576 245 519T203 350Q203
239 244 181T366 123Q446 123 487 181ZM358 752T342 759T315 777Q299 795 248 849Q223 876 217 883T211 897Q211 905 225 908T271 911Q341 911 356 884Q358 880 397 814Q408 796 414 784T421 767Q421 759 415 756T390 752Q358 752 342 759Z" />
<glyph unicode="&#xd3;" glyph-name="Oacute" horiz-adv-x="731" d="M211 -8T128 84T45 350Q45 523 128 615T366 708Q521 708 603 616T686 350Q686 177 604 85T366 -8Q211 -8 128 84ZM446 123T487 181T528 350Q528 461 487 518T366 576Q286 576 245 519T203 350Q203
239 244 181T366 123Q446 123 487 181ZM328 752T322 755T315 767Q315 772 321 784T339 814Q378 880 380 884Q395 911 465 911Q496 911 510 908T525 897Q525 891 519 884T488 849Q437 795 421 777Q411 766 395 759T346 752Q328 752 322 755Z" />
<glyph unicode="&#xd4;" glyph-name="Ocircumflex" horiz-adv-x="731" d="M211 -8T128 84T45 350Q45 523 128 615T366 708Q521 708 603 616T686 350Q686 177 604 85T366 -8Q211 -8 128 84ZM446 123T487 181T528 350Q528 461 487 518T366 576Q286 576 245 519T203
350Q203 239 244 181T366 123Q446 123 487 181ZM228 749T228 759Q228 765 234 774L299 876Q307 888 320 891T360 895H371Q397 895 410 892T432 876L497 774Q503 765 503 759Q503 749 483 749H461Q409 749 393 773L365 813L337 774Q327 759 311 754T270 749H248Q228
749 228 759Z" />
<glyph unicode="&#xd5;" glyph-name="Otilde" horiz-adv-x="731" d="M211 -8T128 84T45 350Q45 523 128 615T366 708Q521 708 603 616T686 350Q686 177 604 85T366 -8Q211 -8 128 84ZM446 123T487 181T528 350Q528 461 487 518T366 576Q286 576 245 519T203 350Q203
239 244 181T366 123Q446 123 487 181ZM199 760Q177 766 177 787Q177 793 179 801Q190 830 219 850T288 871Q304 871 331 864T365 856Q411 843 429 842Q447 842 462 858Q476 875 490 875Q498 875 502 873L513 870Q536 864 536 843Q536 835 533 829Q522 800 493
780T424 759Q408 759 381 766T347 774Q301 787 283 788Q264 788 250 772Q237 755 223 755Q218 755 210 757L199 760Z" />
<glyph unicode="&#xd6;" glyph-name="Odieresis" horiz-adv-x="731" d="M211 -8T128 84T45 350Q45 523 128 615T366 708Q521 708 603 616T686 350Q686 177 604 85T366 -8Q211 -8 128 84ZM446 123T487 181T528 350Q528 461 487 518T366 576Q286 576 245 519T203
350Q203 239 244 181T366 123Q446 123 487 181ZM216 755T216 787V847Q216 879 276 879Q336 879 336 847V787Q336 755 276 755Q216 755 216 787ZM396 755T396 787V847Q396 879 456 879Q516 879 516 847V787Q516 755 456 755Q396 755 396 787Z" />
<glyph unicode="&#xd7;" glyph-name="multiply" horiz-adv-x="560" d="M495 95Q504 86 504 77Q504 62 481 39L476 34Q453 11 438 11Q428 11 420 20L272 167L125 20Q116 11 107 11Q92 11 69 34L64 39Q41 62 41 77Q41 86 50 95L197 242L50 390Q41 398 41 408Q41
423 64 446L69 451Q92 474 107 474Q116 474 125 465L272 318L420 465Q428 474 438 474Q453 474 476 451L481 446Q504 423 504 408Q504 398 495 390L348 242L495 95Z" />
<glyph unicode="&#xd8;" glyph-name="Oslash" horiz-adv-x="731" d="M686 508T686 350Q686 177 604 85T366 -8Q229 -8 147 66L89 0Q79 -12 67 -12Q54 -12 37 4T19 34Q19 42 29 54L96 129Q45 215 45 350Q45 523 128 615T366 708Q485 708 560 654L612 712Q623 724
634 724Q647 724 664 708T682 678Q682 669 672 658L618 597Q686 508 686 350ZM203 301T212 260L463 544Q425 576 366 576Q286 576 245 519T203 350Q203 301 212 260ZM446 123T487 181T528 350Q528 424 510 475L247 178Q288 123 366 123Q446 123 487 181Z" />
<glyph unicode="&#xd9;" glyph-name="Ugrave" horiz-adv-x="712" d="M218 -8T142 55T66 234V670Q66 702 126 702H160Q220 702 220 670V244Q220 191 258 157T356 123Q416 123 454 157T493 244V670Q493 702 553 702H586Q646 702 646 670V234Q646 119 570 56T356
-8Q218 -8 142 55ZM348 752T332 759T305 777Q289 795 238 849Q213 876 207 883T201 897Q201 905 215 908T261 911Q331 911 346 884Q348 880 387 814Q398 796 404 784T411 767Q411 759 405 756T380 752Q348 752 332 759Z" />
<glyph unicode="&#xda;" glyph-name="Uacute" horiz-adv-x="712" d="M218 -8T142 55T66 234V670Q66 702 126 702H160Q220 702 220 670V244Q220 191 258 157T356 123Q416 123 454 157T493 244V670Q493 702 553 702H586Q646 702 646 670V234Q646 119 570 56T356
-8Q218 -8 142 55ZM318 752T312 755T305 767Q305 772 311 784T329 814Q368 880 370 884Q385 911 455 911Q486 911 500 908T515 897Q515 891 509 884T478 849Q427 795 411 777Q401 766 385 759T336 752Q318 752 312 755Z" />
<glyph unicode="&#xdb;" glyph-name="Ucircumflex" horiz-adv-x="712" d="M218 -8T142 55T66 234V670Q66 702 126 702H160Q220 702 220 670V244Q220 191 258 157T356 123Q416 123 454 157T493 244V670Q493 702 553 702H586Q646 702 646 670V234Q646 119 570 56T356
-8Q218 -8 142 55ZM218 749T218 759Q218 765 224 774L289 876Q297 888 310 891T350 895H361Q387 895 400 892T422 876L487 774Q493 765 493 759Q493 749 473 749H451Q399 749 383 773L355 813L327 774Q317 759 301 754T260 749H238Q218 749 218 759Z" />
<glyph unicode="&#xdc;" glyph-name="Udieresis" horiz-adv-x="712" d="M218 -8T142 55T66 234V670Q66 702 126 702H160Q220 702 220 670V244Q220 191 258 157T356 123Q416 123 454 157T493 244V670Q493 702 553 702H586Q646 702 646 670V234Q646 119 570 56T356
-8Q218 -8 142 55ZM206 755T206 787V847Q206 879 266 879Q326 879 326 847V787Q326 755 266 755Q206 755 206 787ZM386 755T386 787V847Q386 879 446 879Q506 879 506 847V787Q506 755 446 755Q386 755 386 787Z" />
<glyph unicode="&#xdd;" glyph-name="Yacute" horiz-adv-x="559" d="M203 -2T203 30V336L4 657Q-6 674 -6 682Q-6 702 58 702H101Q150 702 161 683L283 469L406 683Q417 702 466 702H502Q565 702 565 682Q565 672 556 657L357 333V30Q357 -2 297 -2H263Q203 -2
203 30ZM242 752T236 755T229 767Q229 772 235 784T253 814Q292 880 294 884Q309 911 379 911Q410 911 424 908T439 897Q439 891 433 884T402 849Q351 795 335 777Q325 766 309 759T260 752Q242 752 236 755Z" />
<glyph unicode="&#xde;" glyph-name="Thorn" horiz-adv-x="570" d="M69 -2T69 30V670Q69 702 129 702H163Q223 702 223 670V593H319Q413 593 485 548T557 374Q557 286 515 238T421 172T329 155H223V30Q223 -2 163 -2H129Q69 -2 69 30ZM312 287Q348 287 373 306T399
374Q399 423 374 442T312 462H223V287H312Z" />
<glyph unicode="&#xdf;" glyph-name="germandbls" horiz-adv-x="554" d="M58 -2T58 30V490Q58 555 87 604T169 681T287 708Q350 708 400 687T479 625T508 530Q508 480 484 443T415 387V383Q477 359 505 317T533 210Q533 150 505 102T423 27T299 0H276Q260 0 253
12T246 50V67Q246 93 253 105T276 117H290Q332 117 357 142T383 210Q383 256 355 283T278 311H276Q260 311 253 323T246 361V378Q246 428 273 428H276Q313 428 335 452T358 511Q358 538 340 560T285 583Q249 583 228 561T206 502V30Q206 -2 146 -2H118Q58 -2 58
30Z" />
<glyph unicode="&#xe0;" glyph-name="agrave" horiz-adv-x="545" d="M113 -8T78 32T42 138Q42 218 100 271T329 324V357Q329 386 311 400T251 414Q217 414 192 407T146 391T123 382Q113 382 101 397T80 431T71 462Q71 479 96 495T165 521T262 531Q375 531 426
487T477 364V176Q477 130 479 106T486 53Q489 40 489 31Q489 15 449 7T377 -1Q359 -1 352 13T342 45T337 68Q331 57 313 40T263 7T190 -8Q113 -8 78 32ZM267 109T292 127T329 172V227Q189 227 189 153Q189 133 202 121T239 109Q267 109 292 127ZM265 575T249 582T222
600Q206 618 155 672Q130 699 124 706T118 720Q118 728 132 731T178 734Q248 734 263 707Q265 703 304 637Q315 619 321 607T328 590Q328 582 322 579T297 575Q265 575 249 582Z" />
<glyph unicode="&#xe1;" glyph-name="aacute" horiz-adv-x="545" d="M113 -8T78 32T42 138Q42 218 100 271T329 324V357Q329 386 311 400T251 414Q217 414 192 407T146 391T123 382Q113 382 101 397T80 431T71 462Q71 479 96 495T165 521T262 531Q375 531 426
487T477 364V176Q477 130 479 106T486 53Q489 40 489 31Q489 15 449 7T377 -1Q359 -1 352 13T342 45T337 68Q331 57 313 40T263 7T190 -8Q113 -8 78 32ZM267 109T292 127T329 172V227Q189 227 189 153Q189 133 202 121T239 109Q267 109 292 127ZM235 575T229 578T222
590Q222 595 228 607T246 637Q285 703 287 707Q302 734 372 734Q403 734 417 731T432 720Q432 714 426 707T395 672Q344 618 328 600Q318 589 302 582T253 575Q235 575 229 578Z" />
<glyph unicode="&#xe2;" glyph-name="acircumflex" horiz-adv-x="545" d="M113 -8T78 32T42 138Q42 218 100 271T329 324V357Q329 386 311 400T251 414Q217 414 192 407T146 391T123 382Q113 382 101 397T80 431T71 462Q71 479 96 495T165 521T262 531Q375 531
426 487T477 364V176Q477 130 479 106T486 53Q489 40 489 31Q489 15 449 7T377 -1Q359 -1 352 13T342 45T337 68Q331 57 313 40T263 7T190 -8Q113 -8 78 32ZM267 109T292 127T329 172V227Q189 227 189 153Q189 133 202 121T239 109Q267 109 292 127ZM135 572T135
582Q135 588 141 597L206 699Q214 711 227 714T267 718H278Q304 718 317 715T339 699L404 597Q410 588 410 582Q410 572 390 572H368Q316 572 300 596L272 636L244 597Q234 582 218 577T177 572H155Q135 572 135 582Z" />
<glyph unicode="&#xe3;" glyph-name="atilde" horiz-adv-x="545" d="M113 -8T78 32T42 138Q42 218 100 271T329 324V357Q329 386 311 400T251 414Q217 414 192 407T146 391T123 382Q113 382 101 397T80 431T71 462Q71 479 96 495T165 521T262 531Q375 531 426
487T477 364V176Q477 130 479 106T486 53Q489 40 489 31Q489 15 449 7T377 -1Q359 -1 352 13T342 45T337 68Q331 57 313 40T263 7T190 -8Q113 -8 78 32ZM267 109T292 127T329 172V227Q189 227 189 153Q189 133 202 121T239 109Q267 109 292 127ZM106 583Q84 589
84 610Q84 616 86 624Q97 653 126 673T195 694Q211 694 238 687T272 679Q318 666 336 665Q354 665 369 681Q383 698 397 698Q405 698 409 696L420 693Q443 687 443 666Q443 658 440 652Q429 623 400 603T331 582Q315 582 288 589T254 597Q208 610 190 611Q171 611
157 595Q144 578 130 578Q125 578 117 580L106 583Z" />
<glyph unicode="&#xe4;" glyph-name="adieresis" horiz-adv-x="545" d="M113 -8T78 32T42 138Q42 218 100 271T329 324V357Q329 386 311 400T251 414Q217 414 192 407T146 391T123 382Q113 382 101 397T80 431T71 462Q71 479 96 495T165 521T262 531Q375 531 426
487T477 364V176Q477 130 479 106T486 53Q489 40 489 31Q489 15 449 7T377 -1Q359 -1 352 13T342 45T337 68Q331 57 313 40T263 7T190 -8Q113 -8 78 32ZM267 109T292 127T329 172V227Q189 227 189 153Q189 133 202 121T239 109Q267 109 292 127ZM123 578T123 610V670Q123
702 183 702Q243 702 243 670V610Q243 578 183 578Q123 578 123 610ZM303 578T303 610V670Q303 702 363 702Q423 702 423 670V610Q423 578 363 578Q303 578 303 610Z" />
<glyph unicode="&#xe5;" glyph-name="aring" horiz-adv-x="545" d="M113 -8T78 32T42 138Q42 218 100 271T329 324V357Q329 386 311 400T251 414Q217 414 192 407T146 391T123 382Q113 382 101 397T80 431T71 462Q71 479 96 495T165 521T262 531Q375 531 426 487T477
364V176Q477 130 479 106T486 53Q489 40 489 31Q489 15 449 7T377 -1Q359 -1 352 13T342 45T337 68Q331 57 313 40T263 7T190 -8Q113 -8 78 32ZM267 109T292 127T329 172V227Q189 227 189 153Q189 133 202 121T239 109Q267 109 292 127ZM230 550T202 578T173 649Q173
691 201 720T272 749Q314 749 343 720T372 649Q372 607 343 579T272 550Q230 550 202 578ZM287 612T298 622T309 648Q309 663 298 674T272 685Q257 685 247 674T236 648Q236 633 246 623T272 612Q287 612 298 622Z" />
<glyph unicode="&#xe6;" glyph-name="ae" horiz-adv-x="819" d="M130 -8T86 33T42 138Q42 217 100 269T326 323Q330 358 341 387Q320 414 251 414Q208 414 150 390Q126 382 123 382Q113 382 101 397T80 431T71 462Q71 479 96 495T165 521T262 531Q370 531 423
495Q482 531 565 531Q677 531 729 463T781 283Q781 270 762 247T732 224H477Q477 163 509 136T590 109Q618 109 641 115T689 132Q705 140 711 140Q721 140 733 126T754 93T763 64Q763 41 732 25T658 0T583 -8Q456 -8 388 60Q364 36 317 14T208 -8Q130 -8 86 33ZM637
323Q637 366 618 390T565 414Q489 414 475 323H637ZM267 109T294 121T335 156Q326 188 323 225Q189 224 189 153Q189 133 202 121T239 109Q267 109 294 121Z" />
<glyph unicode="&#xe7;" glyph-name="ccedilla" horiz-adv-x="485" d="M469 32T425 16T326 -6L318 -36Q349 -40 372 -58T395 -112Q395 -212 276 -212Q229 -212 187 -198T145 -162Q145 -140 156 -129T177 -118Q185 -118 209 -126Q244 -139 268 -139Q292 -139 292
-122Q292 -113 286 -108T265 -97Q253 -92 246 -87T239 -74Q239 -68 259 -7Q149 2 96 67T42 258Q42 394 104 462T299 531Q360 531 412 513T465 462Q465 447 445 416T412 385Q408 385 394 392Q374 402 355 408T307 414Q248 414 221 377T194 262Q194 184 219 147T301
109Q327 109 347 114T381 125T399 132Q415 138 417 138Q427 138 439 124T460 91T469 62Q469 32 425 16Z" />
<glyph unicode="&#xe8;" glyph-name="egrave" horiz-adv-x="539" d="M171 -8T107 62T42 258Q42 399 106 465T285 531Q396 531 448 459T501 273Q501 261 481 238T450 214H195Q200 157 229 133T310 109Q338 109 361 115T409 132Q425 140 431 140Q441 140 453 126T474
93T483 64Q483 41 452 25T378 0T303 -8Q171 -8 107 62ZM357 313Q357 359 339 386T285 414Q211 414 195 313H357ZM262 575T246 582T219 600Q203 618 152 672Q127 699 121 706T115 720Q115 728 129 731T175 734Q245 734 260 707Q262 703 301 637Q312 619 318 607T325
590Q325 582 319 579T294 575Q262 575 246 582Z" />
<glyph unicode="&#xe9;" glyph-name="eacute" horiz-adv-x="539" d="M171 -8T107 62T42 258Q42 399 106 465T285 531Q396 531 448 459T501 273Q501 261 481 238T450 214H195Q200 157 229 133T310 109Q338 109 361 115T409 132Q425 140 431 140Q441 140 453 126T474
93T483 64Q483 41 452 25T378 0T303 -8Q171 -8 107 62ZM357 313Q357 359 339 386T285 414Q211 414 195 313H357ZM232 575T226 578T219 590Q219 595 225 607T243 637Q282 703 284 707Q299 734 369 734Q400 734 414 731T429 720Q429 714 423 707T392 672Q341 618
325 600Q315 589 299 582T250 575Q232 575 226 578Z" />
<glyph unicode="&#xea;" glyph-name="ecircumflex" horiz-adv-x="539" d="M171 -8T107 62T42 258Q42 399 106 465T285 531Q396 531 448 459T501 273Q501 261 481 238T450 214H195Q200 157 229 133T310 109Q338 109 361 115T409 132Q425 140 431 140Q441 140 453
126T474 93T483 64Q483 41 452 25T378 0T303 -8Q171 -8 107 62ZM357 313Q357 359 339 386T285 414Q211 414 195 313H357ZM132 572T132 582Q132 588 138 597L203 699Q211 711 224 714T264 718H275Q301 718 314 715T336 699L401 597Q407 588 407 582Q407 572 387
572H365Q313 572 297 596L269 636L241 597Q231 582 215 577T174 572H152Q132 572 132 582Z" />
<glyph unicode="&#xeb;" glyph-name="edieresis" horiz-adv-x="539" d="M171 -8T107 62T42 258Q42 399 106 465T285 531Q396 531 448 459T501 273Q501 261 481 238T450 214H195Q200 157 229 133T310 109Q338 109 361 115T409 132Q425 140 431 140Q441 140 453
126T474 93T483 64Q483 41 452 25T378 0T303 -8Q171 -8 107 62ZM357 313Q357 359 339 386T285 414Q211 414 195 313H357ZM120 578T120 610V670Q120 702 180 702Q240 702 240 670V610Q240 578 180 578Q120 578 120 610ZM300 578T300 610V670Q300 702 360 702Q420
702 420 670V610Q420 578 360 578Q300 578 300 610Z" />
<glyph unicode="&#xec;" glyph-name="igrave" horiz-adv-x="265" d="M59 -2T59 30V493Q59 525 119 525H147Q207 525 207 493V30Q207 -2 147 -2H119Q59 -2 59 30ZM125 575T109 582T82 600Q66 618 15 672Q-10 699 -16 706T-22 720Q-22 728 -8 731T38 734Q108 734
123 707Q125 703 164 637Q175 619 181 607T188 590Q188 582 182 579T157 575Q125 575 109 582Z" />
<glyph unicode="&#xed;" glyph-name="iacute" horiz-adv-x="265" d="M59 -2T59 30V493Q59 525 119 525H147Q207 525 207 493V30Q207 -2 147 -2H119Q59 -2 59 30ZM95 575T89 578T82 590Q82 595 88 607T106 637Q145 703 147 707Q162 734 232 734Q263 734 277 731T292
720Q292 714 286 707T255 672Q204 618 188 600Q178 589 162 582T113 575Q95 575 89 578Z" />
<glyph unicode="&#xee;" glyph-name="icircumflex" horiz-adv-x="265" d="M314 -2T314 30V493Q314 525 374 525H402Q462 525 462 493V30Q462 -2 402 -2H374Q314 -2 314 30ZM-5 572T-5 582Q-5 588 1 597L66 699Q74 711 87 714T127 718H138Q164 718 177 715T199
699L264 597Q270 588 270 582Q270 572 250 572H228Q176 572 160 596L132 636L104 597Q94 582 78 577T37 572H15Q-5 572 -5 582Z" />
<glyph unicode="&#xef;" glyph-name="idieresis" horiz-adv-x="265" d="M59 -2T59 30V493Q59 525 119 525H147Q207 525 207 493V30Q207 -2 147 -2H119Q59 -2 59 30ZM-17 578T-17 610V670Q-17 702 43 702Q103 702 103 670V610Q103 578 43 578Q-17 578 -17 610ZM163
578T163 610V670Q163 702 223 702Q283 702 283 670V610Q283 578 223 578Q163 578 163 610Z" />
<glyph unicode="&#xf0;" glyph-name="eth" horiz-adv-x="569" d="M469 542T498 450T527 262Q527 131 466 62T285 -8Q166 -8 104 61T42 262Q42 393 104 462T285 531Q304 531 336 527Q324 554 304 589Q249 581 243 581Q228 581 216 594T204 623Q204 636 225 639L268
645L254 663Q230 689 230 696Q230 707 249 708L311 715Q335 715 349 704Q364 693 389 661L457 670Q470 670 482 657T494 628Q494 615 473 612L427 606Q469 542 498 450ZM332 109T354 147T377 262Q377 338 355 376T285 414Q238 414 215 376T192 262Q192 109 285
109Q332 109 354 147Z" />
<glyph unicode="&#xf1;" glyph-name="ntilde" horiz-adv-x="557" d="M62 -2T62 30V347Q62 391 60 414T53 467Q50 481 50 488Q50 504 90 512T162 520Q180 520 187 507T197 477T202 455Q226 487 266 509T351 531Q426 531 462 492T498 369V30Q498 -2 438 -2H410Q350
-2 350 30V347Q350 378 336 393T290 409Q263 409 243 392T210 351V30Q210 -2 150 -2H122Q62 -2 62 30ZM112 583Q90 589 90 610Q90 616 92 624Q103 653 132 673T201 694Q217 694 244 687T278 679Q324 666 342 665Q360 665 375 681Q389 698 403 698Q411 698 415 696L426
693Q449 687 449 666Q449 658 446 652Q435 623 406 603T337 582Q321 582 294 589T260 597Q214 610 196 611Q177 611 163 595Q150 578 136 578Q131 578 123 580L112 583Z" />
<glyph unicode="&#xf2;" glyph-name="ograve" horiz-adv-x="569" d="M166 -8T104 61T42 262Q42 393 104 462T285 531Q404 531 465 462T527 262Q527 131 466 62T285 -8Q166 -8 104 61ZM332 109T354 147T377 262Q377 338 355 376T285 414Q238 414 215 376T192 262Q192
109 285 109Q332 109 354 147ZM277 575T261 582T234 600Q218 618 167 672Q142 699 136 706T130 720Q130 728 144 731T190 734Q260 734 275 707Q277 703 316 637Q327 619 333 607T340 590Q340 582 334 579T309 575Q277 575 261 582Z" />
<glyph unicode="&#xf3;" glyph-name="oacute" horiz-adv-x="569" d="M166 -8T104 61T42 262Q42 393 104 462T285 531Q404 531 465 462T527 262Q527 131 466 62T285 -8Q166 -8 104 61ZM332 109T354 147T377 262Q377 338 355 376T285 414Q238 414 215 376T192 262Q192
109 285 109Q332 109 354 147ZM247 575T241 578T234 590Q234 595 240 607T258 637Q297 703 299 707Q314 734 384 734Q415 734 429 731T444 720Q444 714 438 707T407 672Q356 618 340 600Q330 589 314 582T265 575Q247 575 241 578Z" />
<glyph unicode="&#xf4;" glyph-name="ocircumflex" horiz-adv-x="569" d="M166 -8T104 61T42 262Q42 393 104 462T285 531Q404 531 465 462T527 262Q527 131 466 62T285 -8Q166 -8 104 61ZM332 109T354 147T377 262Q377 338 355 376T285 414Q238 414 215 376T192
262Q192 109 285 109Q332 109 354 147ZM147 572T147 582Q147 588 153 597L218 699Q226 711 239 714T279 718H290Q316 718 329 715T351 699L416 597Q422 588 422 582Q422 572 402 572H380Q328 572 312 596L284 636L256 597Q246 582 230 577T189 572H167Q147 572
147 582Z" />
<glyph unicode="&#xf5;" glyph-name="otilde" horiz-adv-x="569" d="M166 -8T104 61T42 262Q42 393 104 462T285 531Q404 531 465 462T527 262Q527 131 466 62T285 -8Q166 -8 104 61ZM332 109T354 147T377 262Q377 338 355 376T285 414Q238 414 215 376T192 262Q192
109 285 109Q332 109 354 147ZM118 583Q96 589 96 610Q96 616 98 624Q109 653 138 673T207 694Q223 694 250 687T284 679Q330 666 348 665Q366 665 381 681Q395 698 409 698Q417 698 421 696L432 693Q455 687 455 666Q455 658 452 652Q441 623 412 603T343 582Q327
582 300 589T266 597Q220 610 202 611Q183 611 169 595Q156 578 142 578Q137 578 129 580L118 583Z" />
<glyph unicode="&#xf6;" glyph-name="odieresis" horiz-adv-x="569" d="M166 -8T104 61T42 262Q42 393 104 462T285 531Q404 531 465 462T527 262Q527 131 466 62T285 -8Q166 -8 104 61ZM332 109T354 147T377 262Q377 338 355 376T285 414Q238 414 215 376T192
262Q192 109 285 109Q332 109 354 147ZM135 578T135 610V670Q135 702 195 702Q255 702 255 670V610Q255 578 195 578Q135 578 135 610ZM315 578T315 610V670Q315 702 375 702Q435 702 435 670V610Q435 578 375 578Q315 578 315 610Z" />
<glyph unicode="&#xf7;" glyph-name="divide" horiz-adv-x="560" d="M214 318T214 350V421Q214 453 274 453H285Q345 453 345 421V350Q345 318 285 318H274Q214 318 214 350ZM42 172T35 184T28 222V229Q28 255 35 267T58 279H502Q518 279 525 267T532 229V222Q532
196 525 184T502 172H58Q42 172 35 184ZM214 -2T214 30V101Q214 133 274 133H285Q345 133 345 101V30Q345 -2 285 -2H274Q214 -2 214 30Z" />
<glyph unicode="&#xf8;" glyph-name="oslash" horiz-adv-x="569" d="M484 437Q527 372 527 262Q527 131 466 62T285 -8Q194 -8 136 33L108 1Q98 -12 87 -12Q74 -12 57 3T39 32Q39 42 49 53L82 91Q42 159 42 262Q42 393 104 462T285 531Q371 531 428 494L460 531Q471
544 482 544Q494 544 512 528T530 500Q530 491 520 479L484 437ZM192 247T194 221L341 393Q320 414 285 414Q238 414 215 376T192 262Q192 247 194 221ZM377 289T374 310L224 135Q247 109 285 109Q332 109 354 147T377 262Q377 289 374 310Z" />
<glyph unicode="&#xf9;" glyph-name="ugrave" horiz-adv-x="557" d="M131 -8T95 31T59 154V493Q59 525 119 525H147Q207 525 207 493V176Q207 145 221 130T267 114Q294 114 314 131T347 172V493Q347 525 407 525H435Q495 525 495 493V176Q495 130 497 106T504
53Q507 40 507 31Q507 15 467 7T395 -1Q377 -1 370 13T360 45T355 68Q331 36 292 14T206 -8Q131 -8 95 31ZM271 575T255 582T228 600Q212 618 161 672Q136 699 130 706T124 720Q124 728 138 731T184 734Q254 734 269 707Q271 703 310 637Q321 619 327 607T334 590Q334
582 328 579T303 575Q271 575 255 582Z" />
<glyph unicode="&#xfa;" glyph-name="uacute" horiz-adv-x="557" d="M131 -8T95 31T59 154V493Q59 525 119 525H147Q207 525 207 493V176Q207 145 221 130T267 114Q294 114 314 131T347 172V493Q347 525 407 525H435Q495 525 495 493V176Q495 130 497 106T504
53Q507 40 507 31Q507 15 467 7T395 -1Q377 -1 370 13T360 45T355 68Q331 36 292 14T206 -8Q131 -8 95 31ZM241 575T235 578T228 590Q228 595 234 607T252 637Q291 703 293 707Q308 734 378 734Q409 734 423 731T438 720Q438 714 432 707T401 672Q350 618 334 600Q324
589 308 582T259 575Q241 575 235 578Z" />
<glyph unicode="&#xfb;" glyph-name="ucircumflex" horiz-adv-x="557" d="M131 -8T95 31T59 154V493Q59 525 119 525H147Q207 525 207 493V176Q207 145 221 130T267 114Q294 114 314 131T347 172V493Q347 525 407 525H435Q495 525 495 493V176Q495 130 497 106T504
53Q507 40 507 31Q507 15 467 7T395 -1Q377 -1 370 13T360 45T355 68Q331 36 292 14T206 -8Q131 -8 95 31ZM141 572T141 582Q141 588 147 597L212 699Q220 711 233 714T273 718H284Q310 718 323 715T345 699L410 597Q416 588 416 582Q416 572 396 572H374Q322 572
306 596L278 636L250 597Q240 582 224 577T183 572H161Q141 572 141 582Z" />
<glyph unicode="&#xfc;" glyph-name="udieresis" horiz-adv-x="557" d="M131 -8T95 31T59 154V493Q59 525 119 525H147Q207 525 207 493V176Q207 145 221 130T267 114Q294 114 314 131T347 172V493Q347 525 407 525H435Q495 525 495 493V176Q495 130 497 106T504
53Q507 40 507 31Q507 15 467 7T395 -1Q377 -1 370 13T360 45T355 68Q331 36 292 14T206 -8Q131 -8 95 31ZM129 578T129 610V670Q129 702 189 702Q249 702 249 670V610Q249 578 189 578Q129 578 129 610ZM309 578T309 610V670Q309 702 369 702Q429 702 429 670V610Q429
578 369 578Q309 578 309 610Z" />
<glyph unicode="&#xfd;" glyph-name="yacute" horiz-adv-x="481" d="M477 525T477 503Q477 496 474 485L245 -185Q238 -206 189 -206H172Q112 -206 112 -185Q112 -176 116 -167L179 1L14 485Q10 499 10 503Q10 525 71 525H103Q152 525 159 504L218 319Q227 291
246 198H250Q270 294 278 319L337 504Q344 525 393 525H417Q477 525 477 503ZM203 575T197 578T190 590Q190 595 196 607T214 637Q253 703 255 707Q270 734 340 734Q371 734 385 731T400 720Q400 714 394 707T363 672Q312 618 296 600Q286 589 270 582T221 575Q203
575 197 578Z" />
<glyph unicode="&#xfe;" glyph-name="thorn" horiz-adv-x="570" d="M65 -206T65 -174V722Q65 754 125 754H153Q213 754 213 722V470Q232 498 265 514T339 531Q393 531 435 500T502 407T526 261Q526 137 471 65T315 -8Q256 -8 213 23V-174Q213 -206 153 -206H125Q65
-206 65 -174ZM376 109T376 261Q376 410 295 410Q247 410 213 351V128Q247 109 283 109Q376 109 376 261Z" />
<glyph unicode="&#xff;" glyph-name="ydieresis" horiz-adv-x="481" d="M477 525T477 503Q477 496 474 485L245 -185Q238 -206 189 -206H172Q112 -206 112 -185Q112 -176 116 -167L179 1L14 485Q10 499 10 503Q10 525 71 525H103Q152 525 159 504L218 319Q227
291 246 198H250Q270 294 278 319L337 504Q344 525 393 525H417Q477 525 477 503ZM91 578T91 610V670Q91 702 151 702Q211 702 211 670V610Q211 578 151 578Q91 578 91 610ZM271 578T271 610V670Q271 702 331 702Q391 702 391 670V610Q391 578 331 578Q271 578
271 610Z" />
<glyph unicode="&#x2013;" glyph-name="endash" horiz-adv-x="500" d="M14 212T7 224T0 262V269Q0 295 7 307T30 319H470Q486 319 493 307T500 269V262Q500 236 493 224T470 212H30Q14 212 7 224Z" />
<glyph unicode="&#x2014;" glyph-name="emdash" horiz-adv-x="1000" d="M14 212T7 224T0 262V269Q0 295 7 307T30 319H970Q986 319 993 307T1000 269V262Q1000 236 993 224T970 212H30Q14 212 7 224Z" />
<glyph unicode="&#x2018;" glyph-name="quoteleft" horiz-adv-x="212" d="M41 478T26 490T11 522Q11 575 35 629T93 720T149 757Q165 757 179 752T194 735Q194 724 188 709Q186 703 175 676T157 610T150 522Q150 478 90 478H71Q41 478 26 490Z" />
<glyph unicode="&#x2019;" glyph-name="quoteright" horiz-adv-x="212" d="M48 478T34 483T19 500Q19 508 26 529Q43 572 53 609T63 713Q63 757 123 757H142Q172 757 187 745T202 713Q202 660 178 606T120 515T64 478Q48 478 34 483Z" />
<glyph unicode="&#x201a;" glyph-name="quotesinglbase" horiz-adv-x="198" d="M42 -125T28 -120T13 -103Q13 -95 20 -74Q37 -31 47 6T57 110Q57 154 117 154H136Q166 154 181 142T196 110Q196 57 172 3T114 -88T58 -125Q42 -125 28 -120Z" />
<glyph unicode="&#x201c;" glyph-name="quotedblleft" horiz-adv-x="350" d="M198 478T183 490T168 522Q168 575 192 629T250 720T306 757Q322 757 336 752T351 735Q351 724 345 709Q343 703 332 676T314 610T307 522Q307 478 247 478H228Q198 478 183 490ZM277
478T262 490T247 522Q247 575 271 629T329 720T385 757Q401 757 415 752T430 735Q430 724 424 709Q422 703 411 676T393 610T386 522Q386 478 326 478H307Q277 478 262 490Z" />
<glyph unicode="&#x201d;" glyph-name="quotedblright" horiz-adv-x="350" d="M207 478T193 483T178 500Q178 508 185 529Q202 572 212 609T222 713Q222 757 282 757H301Q331 757 346 745T361 713Q361 660 337 606T279 515T223 478Q207 478 193 483ZM285 478T271
483T256 500Q256 508 263 529Q280 572 290 609T300 713Q300 757 360 757H379Q409 757 424 745T439 713Q439 660 415 606T357 515T301 478Q285 478 271 483Z" />
<glyph unicode="&#x201e;" glyph-name="quotedblbase" horiz-adv-x="336" d="M199 -125T185 -120T170 -103Q170 -95 177 -74Q194 -31 204 6T214 110Q214 154 274 154H293Q323 154 338 142T353 110Q353 57 329 3T271 -88T215 -125Q199 -125 185 -120ZM21 -125T7
-120T-8 -103Q-8 -95 -1 -74Q16 -31 26 6T36 110Q36 154 96 154H115Q145 154 160 142T175 110Q175 57 151 3T93 -88T37 -125Q21 -125 7 -120Z" />
<glyph unicode="&#x2022;" glyph-name="bullet" horiz-adv-x="336" d="M132 194T102 211T54 259T36 326Q36 362 54 392T102 441T168 459Q204 459 234 441T283 393T301 326Q301 290 283 260T235 212T168 194Q132 194 102 211Z" />
<glyph unicode="&#x2039;" glyph-name="guilsinglleft" horiz-adv-x="300" d="M184 46T170 61L43 214Q34 224 31 234T27 258Q27 272 30 282T43 302L170 455Q183 469 197 469Q213 469 234 453T256 420Q256 410 247 398L137 258L247 118Q256 106 256 95Q256 80 235
63T197 46Q184 46 170 61Z" />
<glyph unicode="&#x203a;" glyph-name="guilsinglright" horiz-adv-x="300" d="M82 46T61 63T40 95Q40 106 49 118L159 258L49 398Q40 410 40 420Q40 436 61 452T99 469Q115 469 126 455L253 302Q262 292 265 282T269 258Q269 244 266 234T253 214L126 61Q114
46 99 46Q82 46 61 63Z" />
</font>
</defs>
</svg>
