<?xml version="1.0" standalone="no"?>
<!DOCTYPE svg PUBLIC "-//W3C//DTD SVG 1.1//EN" "http://www.w3.org/Graphics/SVG/1.1/DTD/svg11.dtd">
<svg xmlns="http://www.w3.org/2000/svg">
<defs >
<font id="Asap" horiz-adv-x="545" ><font-face
    font-family="Asap"
    units-per-em="1000"
    panose-1="2 15 5 4 3 2 2 13 2 3"
    ascent="934"
    descent="-212"
    alphabetic="0" />
<glyph unicode=" " glyph-name="space" horiz-adv-x="240" />
<glyph unicode="!" glyph-name="exclam" horiz-adv-x="294" d="M110 202T104 207T98 224L146 680Q149 702 188 702H208Q229 702 237 697T245 680Q245 671 201 407Q184 315 170 224Q167 202 137 202H126Q110 202 104 207ZM82 -2T74 3T65 20L72 86Q74 108 114 108H131Q152
108 160 103T169 86L162 20Q159 -2 120 -2H103Q82 -2 74 3Z" />
<glyph unicode="&quot;" glyph-name="quotedbl" horiz-adv-x="319" d="M95 472T95 484V680Q95 702 137 702H147Q163 702 173 698T184 680Q184 677 163 583L141 484Q138 472 117 472H116Q95 472 95 484ZM223 472T223 484V680Q223 702 265 702H275Q291 702 301 698T312
680Q312 677 291 583L269 484Q266 472 245 472H244Q223 472 223 484Z" />
<glyph unicode="#" glyph-name="numbersign" horiz-adv-x="534" d="M54 -2T48 2T42 15Q42 19 51 49Q79 144 93 196H17Q6 196 3 202T0 226V228Q0 273 25 273H116L158 420H76Q65 420 62 426T59 450V452Q59 497 84 497H179L227 664Q230 676 239 681T274 686H278Q304
686 304 671Q302 659 291 625L253 497H372L419 664Q422 676 431 681T466 686H471Q497 686 497 671Q497 664 483 618L448 497H517Q528 497 531 490T534 467V465Q534 420 509 420H425L384 273H460Q471 273 474 266T477 243V241Q476 196 452 196H360L311 20Q307 8
298 3T265 -2H261Q247 -2 241 2T235 15Q235 19 244 49Q272 144 286 196H168L118 20Q115 8 106 3T72 -2H68Q54 -2 48 2ZM309 273L351 420H233L191 273H309Z" />
<glyph unicode="$" glyph-name="dollar" horiz-adv-x="440" d="M198 -68T195 -64T191 -48L195 -6Q153 -4 110 5T46 32Q34 44 34 56Q34 121 50 121Q53 121 69 110Q133 71 203 70L230 324Q175 346 143 364T88 414T65 498Q65 583 121 638T270 704L274 735Q276 746
280 750T296 755H298Q314 755 314 735L311 706Q345 705 385 696T446 671Q462 658 462 646Q462 636 447 614T424 592Q420 592 404 601Q381 614 359 621T303 630L278 403Q331 383 365 363T424 308T448 218Q448 123 390 64T235 -4L231 -48Q230 -68 209 -68H208Q198
-68 195 -64ZM262 627Q214 618 185 588T155 508Q155 476 176 456T240 418L262 627ZM293 82T325 117T357 204Q357 241 334 264T268 308L243 73Q293 82 325 117Z" />
<glyph unicode="%" glyph-name="percent" horiz-adv-x="765" d="M148 381T113 409T78 510Q78 619 124 662T234 706Q286 706 321 677T356 574Q356 491 318 436T200 381Q148 381 113 409ZM127 -2T127 6Q127 12 131 17L570 683Q583 702 601 702H626Q639 702 639 693Q639
688 635 683L196 17Q183 -2 165 -2H140Q127 -2 127 6ZM252 436T272 477T292 575Q292 652 228 652Q144 652 144 509Q144 476 157 456T205 436Q252 436 272 477ZM478 -6T443 22T408 123Q408 232 454 275T564 319Q616 319 651 290T686 187Q686 104 648 49T530 -6Q478
-6 443 22ZM582 49T602 90T622 188Q622 265 558 265Q474 265 474 122Q474 89 487 69T535 49Q582 49 602 90Z" />
<glyph unicode="&amp;" glyph-name="ampersand" horiz-adv-x="624" d="M592 408T595 404T599 389V388Q599 374 588 355T554 336H490L481 248Q469 136 469 123Q469 91 482 79T517 66Q538 66 548 69T562 73Q569 73 569 64Q569 37 566 28Q561 13 543 4T496 -6Q427
-6 400 36Q327 -6 235 -6Q184 -6 138 12T62 71T32 175Q32 232 54 277T110 350T179 387L180 391Q140 407 116 440T91 520Q91 580 120 622T200 685T312 706Q391 706 391 679Q391 667 382 648T364 628Q359 628 345 631T306 634Q231 634 203 596T174 518Q174 475 204
442T297 408H414L426 513Q427 525 437 530T467 535H471Q492 535 500 530T509 513L498 408H583Q592 408 595 404ZM393 216T398 267T406 336H285Q209 336 165 302T120 184Q120 121 159 94T251 66Q287 66 324 77T388 106Q387 114 387 131Q387 149 388 159Q393 216
398 267Z" />
<glyph unicode="&apos;" glyph-name="quotesingle" horiz-adv-x="183" d="M91 472T91 484V680Q91 702 133 702H143Q159 702 169 698T180 680Q180 677 159 583L137 484Q134 472 113 472H112Q91 472 91 484Z" />
<glyph unicode="(" glyph-name="parenleft" horiz-adv-x="301" d="M198 -212T187 -201Q122 -135 86 -32T50 196Q50 314 80 424T165 624T290 773Q300 783 312 783Q321 783 330 776T339 760Q339 749 328 736Q238 642 185 497T131 192Q131 86 157 -6T232 -164Q239
-172 239 -181Q239 -189 230 -200T208 -212Q198 -212 187 -201Z" />
<glyph unicode=")" glyph-name="parenright" horiz-adv-x="301" d="M-21 -211T-30 -203T-40 -186Q-40 -179 -31 -170Q66 -69 117 81T169 379Q169 485 143 577T68 736Q61 744 61 753Q61 761 70 772T92 784Q102 784 113 773Q178 707 214 604T250 376Q250 258 220
148T135 -52T10 -201Q0 -211 -11 -211Q-21 -211 -30 -203Z" />
<glyph unicode="*" glyph-name="asterisk" horiz-adv-x="373" d="M105 414T98 420T91 432Q91 440 97 447L179 546L84 578Q72 583 72 591Q72 602 78 609T92 617Q98 617 101 616L197 584L208 689Q209 709 230 709Q240 709 244 705T248 689L237 584L339 616Q342 617
348 617Q354 617 359 612T364 596Q364 582 348 578L246 546L307 447Q311 439 311 436Q311 429 303 422T287 414Q278 414 273 423L211 524L127 423Q118 414 111 414Q105 414 98 420Z" />
<glyph unicode="+" glyph-name="plus" horiz-adv-x="560" d="M323 463T329 459T336 443L317 264H495Q506 264 509 257T512 234Q512 197 488 197H310L291 18Q288 -2 259 -2H252Q236 -2 230 2T224 18L243 197H64Q53 197 50 204T47 227Q47 264 71 264H250L269 443Q270
454 277 458T301 463H308Q323 463 329 459Z" />
<glyph unicode="," glyph-name="comma" horiz-adv-x="198" d="M18 -116T10 -113T1 -102Q1 -97 4 -91T9 -84Q34 -46 46 -10T63 76Q65 91 75 99T106 108H115Q152 108 152 80Q146 24 124 -20T75 -90T29 -116Q18 -116 10 -113Z" />
<glyph unicode="-" glyph-name="hyphen" horiz-adv-x="320" d="M47 229T44 236T40 256V258Q40 273 45 287T65 301H259Q276 301 276 276V274Q276 229 251 229H57Q47 229 44 236Z" />
<glyph unicode="." glyph-name="period" horiz-adv-x="198" d="M42 -2T34 3T25 20L32 86Q34 108 74 108H91Q112 108 120 103T129 86L122 20Q119 -2 80 -2H63Q42 -2 34 3Z" />
<glyph unicode="/" glyph-name="slash" horiz-adv-x="370" d="M-55 -79T-55 -69Q-55 -65 -52 -59L343 682Q349 692 355 697T372 702H396Q410 702 410 692Q410 688 407 682L11 -59Q0 -79 -18 -79H-41Q-55 -79 -55 -69Z" />
<glyph unicode="0" glyph-name="zero" horiz-adv-x="535" d="M173 -6T129 24T60 115T34 269Q34 414 73 512T173 658T303 706Q358 706 402 676T473 583T499 427Q499 283 460 186T358 41T228 -6Q173 -6 129 24ZM277 66T318 102T386 220T414 425Q414 532 380 583T295
634Q253 634 213 597T146 478T119 270Q119 165 152 116T236 66Q277 66 318 102Z" />
<glyph unicode="1" glyph-name="one" horiz-adv-x="535" d="M15 0T12 7T8 27V29Q8 72 33 72H207L264 611L84 581Q76 581 72 593T68 621Q68 636 72 642T89 651L326 702Q338 702 346 696T355 681L291 72H440Q450 72 453 65T457 45V43Q457 0 432 0H25Q15 0 12 7Z" />
<glyph unicode="2" glyph-name="two" horiz-adv-x="535" d="M35 0T29 18T22 52Q22 59 24 61L333 403Q400 477 400 543Q400 585 370 609T285 634Q243 634 213 623T154 594Q134 583 130 583Q123 583 113 601T103 631Q103 651 135 668T213 696T291 706Q382 706 434
665T487 556Q487 503 469 461T406 370L136 72H424Q434 72 437 65T441 45V41Q441 26 436 13T416 0H42Q35 0 29 18Z" />
<glyph unicode="3" glyph-name="three" horiz-adv-x="535" d="M161 -6T101 5T40 44Q40 80 44 91T55 103Q59 102 97 84T208 66Q269 66 318 103T367 228Q367 287 332 311T230 336H196Q186 336 183 343T179 363V366Q179 381 184 394T204 407H233Q284 407 317 431T365
488T380 548Q380 583 356 608T271 634Q229 634 201 627T146 608Q128 601 124 601Q116 601 106 620T96 652Q96 666 128 678T204 698T281 706Q366 706 415 668T465 554Q465 494 432 452T347 391L346 387Q391 375 422 333T454 228Q454 147 416 95T321 18T208 -6Q161
-6 101 5Z" />
<glyph unicode="4" glyph-name="four" horiz-adv-x="535" d="M323 -2T317 3T311 20L326 167H22Q15 167 10 182T4 212Q4 226 7 229L384 688Q396 702 419 702H435Q451 702 457 697T463 680L417 239H485Q495 239 498 232T502 212V210Q502 167 477 167H409L394 20Q393
10 385 4T362 -2H339Q323 -2 317 3ZM334 239L356 455L367 557L363 559L105 239H334Z" />
<glyph unicode="5" glyph-name="five" horiz-adv-x="535" d="M152 -6T97 5T42 44Q42 80 46 91T57 103Q61 102 99 84T203 66Q245 66 284 84T349 140T374 232Q374 290 332 320T208 350H123Q109 350 103 355T97 372L145 670Q149 700 181 700H448Q458 700 461 693T465
673V671Q465 656 460 642T440 628H222L187 422H239Q329 422 394 379T460 241Q460 149 420 94T321 17T196 -6Q152 -6 97 5Z" />
<glyph unicode="6" glyph-name="six" horiz-adv-x="535" d="M132 -5T85 47T37 197Q37 343 110 457T277 637T413 702Q426 702 433 685T440 651Q440 642 431 638Q328 597 259 529T156 372Q216 405 294 405Q369 405 417 357T465 229Q465 160 433 107T346 24T226 -5Q132
-5 85 47ZM271 67T303 84T358 135T380 219Q380 277 347 305T262 333Q197 333 133 299Q127 270 124 249T121 202Q121 127 154 97T239 67Q271 67 303 84Z" />
<glyph unicode="7" glyph-name="seven" horiz-adv-x="535" d="M82 -2T72 1T62 13Q62 19 67 28L419 628H103Q93 628 90 635T86 655V660Q86 675 91 687T111 700H506Q511 700 516 685T521 655Q521 646 518 638L156 14Q146 -2 115 -2H103Q82 -2 72 1Z" />
<glyph unicode="8" glyph-name="eight" horiz-adv-x="535" d="M141 -6T87 39T33 171Q33 244 66 299T165 380Q134 400 116 432T97 510Q97 572 125 616T201 683T306 706Q383 706 432 667T481 555Q481 489 449 446T367 381Q416 358 442 325T469 231Q469 153 436 100T349
20T229 -6Q141 -6 87 39ZM343 434T370 467T397 547Q397 591 370 612T298 634Q247 634 214 605T181 517Q181 485 196 465T234 433T297 408Q343 434 370 467ZM275 66T308 83T362 135T383 219Q383 254 367 276T326 310T260 338L229 350Q175 320 148 280T120 181Q120
126 153 96T237 66Q275 66 308 83Z" />
<glyph unicode="9" glyph-name="nine" horiz-adv-x="535" d="M108 -1T101 16T94 50Q94 59 103 63Q206 104 275 172T378 329Q318 296 240 296Q165 296 117 344T69 472Q69 541 101 594T188 677T308 706Q402 706 449 654T497 504Q497 358 424 244T257 64T121 -1Q108
-1 101 16ZM337 368T401 402Q407 431 410 452T413 499Q413 574 380 604T295 634Q263 634 231 617T176 566T154 482Q154 424 187 396T272 368Q337 368 401 402Z" />
<glyph unicode=":" glyph-name="colon" horiz-adv-x="198" d="M86 415T78 420T69 437L76 503Q78 525 118 525H135Q156 525 164 520T173 503L166 437Q163 415 124 415H107Q86 415 78 420ZM42 -2T34 3T25 20L32 86Q34 108 74 108H91Q112 108 120 103T129 86L122
20Q119 -2 80 -2H63Q42 -2 34 3Z" />
<glyph unicode=";" glyph-name="semicolon" horiz-adv-x="198" d="M92 415T84 420T75 437L82 503Q84 525 124 525H141Q162 525 170 520T179 503L172 437Q169 415 130 415H113Q92 415 84 420ZM2 -116T-6 -113T-15 -102Q-15 -97 -12 -91T-7 -84Q18 -46 30 -10T47
76Q49 91 59 99T90 108H99Q136 108 136 80Q130 24 108 -20T59 -90T13 -116Q2 -116 -6 -113Z" />
<glyph unicode="&lt;" glyph-name="less" horiz-adv-x="560" d="M61 184Q50 189 45 196T40 215V221Q40 257 70 271L499 445Q508 448 515 448Q533 448 533 422V416Q532 397 525 388T504 373L133 228L473 82Q493 73 493 47V39Q493 26 485 17T466 7Q460 7 454 10L61 184Z" />
<glyph unicode="=" glyph-name="equal" horiz-adv-x="560" d="M61 271T55 278T49 295V302Q50 338 79 338H507Q517 338 523 331T529 314V307Q528 271 499 271H71Q61 271 55 278ZM44 108T38 115T32 132V139Q33 175 62 175H490Q500 175 506 168T512 151V144Q511 108
482 108H54Q44 108 38 115Z" />
<glyph unicode="&gt;" glyph-name="greater" horiz-adv-x="560" d="M50 6T43 6Q25 6 25 32V37Q25 70 54 81L425 226L85 372Q65 381 65 407V410Q65 428 72 437T91 447Q98 447 104 444L497 270Q508 265 513 258T518 239V233Q518 215 509 202T488 183L59 9Q50 6 43 6Z" />
<glyph unicode="?" glyph-name="question" horiz-adv-x="445" d="M135 202T135 223Q135 255 163 299T238 384Q279 421 300 443T335 490T349 543Q349 632 233 632Q205 632 181 625T130 607Q110 598 105 598Q98 598 89 616T79 647Q79 672 137 689T257 706Q346 706
395 664T445 556Q445 503 415 462T326 366Q275 320 249 290T213 222Q211 212 203 207T178 202H163Q135 202 135 223ZM120 -2T112 3T104 20L111 86Q113 108 153 108H170Q191 108 199 103T208 86L201 20Q198 -2 158 -2H141Q120 -2 112 3Z" />
<glyph unicode="@" glyph-name="at" horiz-adv-x="974" d="M634 705T709 665T825 551T867 380Q867 290 840 215T766 97T657 54Q612 54 586 78T558 137V144Q533 98 498 76T423 54Q389 54 357 70T301 127T278 236Q278 314 304 375T378 470T489 505Q526 505 554 491T600
458Q603 466 607 479T617 497T635 502H641Q663 502 663 481Q658 433 644 299T630 149Q630 107 670 107Q706 107 739 145T793 246T813 380Q813 464 778 527T680 626T534 661Q425 661 334 605T191 451T138 237Q138 143 172 71T268 -42T410 -82Q453 -82 484 -75T544
-55Q548 -54 554 -52T563 -49Q567 -49 567 -55Q567 -66 564 -78Q558 -101 512 -113T410 -126Q314 -126 240 -81T125 47T84 237Q84 367 143 474T306 643T534 705Q634 705 709 665ZM569 265T575 327T587 409Q546 443 495 443Q416 443 384 386T351 241Q351 174 375
145T439 115Q473 115 508 148T568 256Q569 265 575 327Z" />
<glyph unicode="A" glyph-name="A" horiz-adv-x="613" d="M-23 -2T-23 14Q-23 19 -18 29L287 686Q294 702 328 702H357Q392 702 396 686L564 28Q565 24 565 18Q565 -2 521 -2H513Q478 -2 474 14L432 178H138L64 14Q57 -2 23 -2H18Q-23 -2 -23 14ZM413 254L340
552Q334 575 334 610H332Q320 573 311 552L174 254H413Z" />
<glyph unicode="B" glyph-name="B" horiz-adv-x="593" d="M63 0T57 7T51 31L118 668Q119 685 127 692T151 700H335Q437 700 491 658T545 544Q545 507 527 471T479 407T415 371L414 367Q414 370 449 354T513 304T541 219Q541 109 464 55T255 0H78Q63 0 57 7ZM299
398Q343 398 378 416T433 465T453 532Q453 579 420 601T318 624H201L178 398H299ZM295 76Q365 76 407 115T450 220Q450 269 413 295T304 322H170L144 76H295Z" />
<glyph unicode="C" glyph-name="C" horiz-adv-x="619" d="M179 -6T109 62T38 274Q38 465 124 585T407 706Q453 706 494 697T561 674Q590 660 590 645Q590 633 575 610T550 586Q547 586 524 598T468 620T392 630Q255 630 192 537T128 286Q128 175 178 123T334 70Q389
70 429 82T493 106T519 118Q526 118 526 107Q526 91 523 70T512 39Q493 16 435 5T326 -6Q179 -6 109 62Z" />
<glyph unicode="D" glyph-name="D" horiz-adv-x="695" d="M63 0T57 5T50 24L117 670Q118 686 126 693T150 700H365Q492 700 567 632T643 415Q643 268 595 175T467 41T292 0H77Q63 0 57 5ZM293 76Q362 76 421 109T516 215T552 401Q552 519 498 571T350 624H200L143
76H293Z" />
<glyph unicode="E" glyph-name="E" horiz-adv-x="546" d="M58 0T52 5T45 24L112 670Q113 686 121 693T145 700H498Q515 700 515 678V673Q515 651 510 638T490 624H195L171 396H435Q452 396 452 374V368Q452 346 447 333T427 320H163L138 76H434Q451 76 451 54V49Q451
27 446 14T426 0H72Q58 0 52 5Z" />
<glyph unicode="F" glyph-name="F" horiz-adv-x="503" d="M66 -2T58 3T49 20L117 670Q118 686 126 693T150 700H467Q484 700 484 678V671Q484 650 479 637T459 624H200L176 396H427Q444 396 444 374V367Q444 346 439 333T419 320H168L137 20Q135 9 125 4T95 -2H87Q66
-2 58 3Z" />
<glyph unicode="G" glyph-name="G" horiz-adv-x="672" d="M587 361T587 337L559 66Q555 27 491 11T328 -6Q52 -6 52 275Q52 491 149 598T418 706Q464 706 507 697T576 673T602 645Q602 633 587 610T562 586Q559 586 538 598T483 620T404 630Q275 630 210 541T144
288Q144 70 342 70Q379 70 415 73T472 83L494 285H376Q359 285 359 307V321Q359 361 384 361H560Q587 361 587 337Z" />
<glyph unicode="H" glyph-name="H" horiz-adv-x="733" d="M79 -2T71 3T62 20L131 680Q133 702 173 702H181Q202 702 210 697T219 680L189 397H551L581 680Q583 702 623 702H631Q652 702 660 697T669 680L600 20Q597 -2 558 -2H550Q529 -2 521 3T512 20L543 321H181L150
20Q147 -2 108 -2H100Q79 -2 71 3Z" />
<glyph unicode="I" glyph-name="I" horiz-adv-x="282" d="M79 -2T71 3T62 20L131 680Q133 702 173 702H181Q202 702 210 697T219 680L150 20Q147 -2 108 -2H100Q79 -2 71 3Z" />
<glyph unicode="J" glyph-name="J" horiz-adv-x="402" d="M39 -6T14 1T-11 26Q-11 85 4 85Q9 85 26 81T70 76Q139 76 173 106T215 201L266 680Q268 702 308 702H316Q337 702 345 697T354 680L304 205Q294 106 239 50T77 -6Q39 -6 14 1Z" />
<glyph unicode="K" glyph-name="K" horiz-adv-x="576" d="M61 -2T53 3T44 20L113 680Q115 702 155 702H163Q184 702 192 697T201 680L169 374H173L450 688Q463 702 505 702H515Q531 702 540 699T549 690Q549 681 537 669L259 360L520 28Q527 19 527 12Q526 4 516
1T482 -2H475Q452 -2 440 0T421 11L169 333H165L132 20Q130 9 120 4T90 -2H82Q61 -2 53 3Z" />
<glyph unicode="L" glyph-name="L" horiz-adv-x="484" d="M61 0T56 7T50 30L118 680Q120 702 160 702H168Q189 702 197 697T206 680L143 76H434Q451 76 451 54V48Q451 26 446 13T426 0H77Q61 0 56 7Z" />
<glyph unicode="M" glyph-name="M" horiz-adv-x="843" d="M371 195T365 208L217 524Q205 550 200 564L196 563Q197 546 193 514L141 20Q138 -2 99 -2H92Q71 -2 63 3T54 20L123 680Q125 702 165 702H201Q234 702 242 684L396 356Q410 326 416 293Q427 319 448 350L672
684Q683 702 715 702H748Q769 702 777 697T786 680L717 20Q714 -2 675 -2H668Q647 -2 639 3T630 20L680 501Q683 534 687 554L683 556Q673 538 660 520L449 208Q440 195 425 195H385Q371 195 365 208Z" />
<glyph unicode="N" glyph-name="N" horiz-adv-x="719" d="M69 -2T61 3T52 20L121 680Q123 702 163 702H184Q200 702 209 698T224 683L497 205Q512 177 519 145L526 146Q526 180 530 212L579 680Q581 702 621 702H628Q649 702 657 697T666 680L597 20Q594 -2 555
-2H535Q509 -2 501 12L222 501Q207 529 200 561L193 560Q193 526 189 494L139 20Q136 -2 97 -2H90Q69 -2 61 3Z" />
<glyph unicode="O" glyph-name="O" horiz-adv-x="731" d="M193 -6T123 67T53 282Q53 396 87 491T199 646T402 706Q537 706 607 634T678 420Q678 283 635 188T514 43T327 -6Q193 -6 123 67ZM411 70T467 109T555 225T586 410Q586 519 537 574T394 630Q278 630 211
543T144 291Q144 182 192 126T335 70Q411 70 467 109Z" />
<glyph unicode="P" glyph-name="P" horiz-adv-x="570" d="M67 -2T59 3T50 20L118 670Q119 686 127 693T151 700H354Q435 700 497 664T559 533Q559 438 515 386T417 316T322 298H167L138 20Q135 -2 96 -2H88Q67 -2 59 3ZM331 374Q357 374 388 386T443 431T467 521Q467
578 431 601T343 624H201L175 374H331Z" />
<glyph unicode="Q" glyph-name="Q" horiz-adv-x="731" d="M616 -157T286 -22L217 6Q60 67 60 278Q60 415 102 511T223 657T410 706Q545 706 615 633T685 417Q685 248 621 141T444 5V1L638 -62Q645 -65 647 -69T650 -82Q650 -126 645 -141T629 -157Q616 -157 286
-22ZM418 67T474 106T562 221T593 404Q593 514 544 572T402 630Q328 630 272 591T184 474T152 290Q152 182 201 125T343 67Q418 67 474 106Z" />
<glyph unicode="R" glyph-name="R" horiz-adv-x="610" d="M67 -2T59 3T50 20L118 670Q119 686 127 693T151 700H319Q430 700 486 664T543 548Q543 476 507 427T409 354V350Q435 340 451 311T485 225L543 28Q545 20 545 17Q545 -2 501 -2H491Q456 -2 452 14L397
210Q381 267 350 287T258 308H168L138 20Q136 9 126 4T96 -2H88Q67 -2 59 3ZM308 384Q347 384 379 403T431 455T450 525Q450 575 417 599T326 624H201L176 384H308Z" />
<glyph unicode="S" glyph-name="S" horiz-adv-x="500" d="M174 -6T132 1T63 22Q36 36 36 56Q36 121 52 121Q54 121 61 117T73 110Q136 70 214 70Q275 70 317 107T359 201Q359 233 342 254T299 289T227 322Q175 343 144 361T90 414T67 501Q67 561 97 607T183 680T309
706Q341 706 380 697T443 674Q464 661 464 646Q464 636 449 614T426 592Q422 592 412 597T394 607Q352 630 299 630Q239 630 198 599T157 511Q157 480 173 460T214 427T283 398Q336 377 369 357T426 303T450 215Q450 148 419 98T333 21T206 -6Q174 -6 132 1Z" />
<glyph unicode="T" glyph-name="T" horiz-adv-x="549" d="M213 -2T205 3T196 20L259 624H65Q48 624 48 646V658Q48 674 53 687T73 700H545Q562 700 562 678V671Q562 650 557 637T537 624H347L284 20Q282 9 272 4T242 -2H234Q213 -2 205 3Z" />
<glyph unicode="U" glyph-name="U" horiz-adv-x="712" d="M240 -6T184 20T97 94T66 201Q66 216 67 224L114 680Q116 702 157 702H165Q186 702 194 697T202 680L155 233Q154 226 154 212Q154 143 200 107T323 70Q376 70 420 89T492 143T524 221L572 680Q574 702
615 702H623Q644 702 652 697T660 680L612 224Q601 115 524 55T315 -6Q240 -6 184 20Z" />
<glyph unicode="V" glyph-name="V" horiz-adv-x="617" d="M221 -2T217 14L57 669L55 681Q55 702 100 702H109Q144 702 148 686L277 152L282 100H285L301 153L542 686Q549 702 583 702H589Q631 702 631 686Q631 681 626 671L328 14Q321 -2 287 -2H256Q221 -2 217 14Z" />
<glyph unicode="W" glyph-name="W" horiz-adv-x="882" d="M157 -2T154 14L54 652Q50 680 50 684Q50 694 60 698T94 702H103Q139 702 142 686L218 194L226 101L261 199L433 685Q436 695 445 698T473 702H489Q524 702 527 685L599 193L606 101L641 201L813 686Q818
702 854 702H860Q902 702 902 686Q902 682 897 668L655 14Q650 -2 614 -2H573Q537 -2 534 14L468 421L461 551L426 421L275 14Q268 -2 234 -2H193Q157 -2 154 14Z" />
<glyph unicode="X" glyph-name="X" horiz-adv-x="611" d="M-17 -2T-17 14Q-17 21 -7 33L251 365L83 667Q77 676 77 683Q77 693 87 697T124 702H138Q155 702 165 699T180 687L315 446L505 688Q515 702 549 702H555Q579 702 589 698T600 686Q600 681 590 667L359
370L548 33Q554 21 554 17Q554 7 544 3T507 -2H491Q474 -2 464 1T449 13L294 288L79 12Q69 -2 35 -2H27Q-17 -2 -17 14Z" />
<glyph unicode="Y" glyph-name="Y" horiz-adv-x="559" d="M217 -2T209 3T200 20L235 359L59 667Q53 676 53 683Q53 693 63 697T100 702H111Q128 702 138 699T153 687L291 441L485 688Q495 702 531 702H540Q576 701 576 686Q576 681 566 667L323 356L288 20Q285
-2 246 -2H238Q217 -2 209 3Z" />
<glyph unicode="Z" glyph-name="Z" horiz-adv-x="616" d="M18 0T12 16T6 48Q6 60 11 65L479 624H118Q101 624 101 646V660Q101 676 106 688T126 700H585Q590 700 596 684T602 652Q602 640 597 635L129 76H521Q538 76 538 54V44Q538 24 533 12T513 0H25Q18 0 12 16Z" />
<glyph unicode="[" glyph-name="bracketleft" horiz-adv-x="291" d="M56 -138T51 -131T45 -108Q45 -95 107 484L134 738Q135 754 143 761T167 768H288Q306 768 306 748V746Q306 730 301 718T282 706H204L122 -76H199Q217 -76 217 -96V-97Q217 -113 212 -125T193
-138H72Q56 -138 51 -131Z" />
<glyph unicode="\" glyph-name="backslash" horiz-adv-x="361" d="M266 -22T260 -1L37 682L35 690Q35 696 39 699T51 703H76Q96 703 102 682L325 -1Q326 -4 326 -9Q326 -22 311 -22H286Q266 -22 260 -1Z" />
<glyph unicode="]" glyph-name="bracketright" horiz-adv-x="291" d="M-17 -138T-17 -118V-116Q-17 -100 -12 -88T7 -76H85L167 706H90Q72 706 72 726V728Q72 744 77 756T96 768H217Q233 768 238 761T244 738Q244 729 160 -62L155 -108Q154 -124 146 -131T122
-138H1Q-17 -138 -17 -118Z" />
<glyph unicode="^" glyph-name="asciicircum" horiz-adv-x="450" d="M409 350T409 341Q407 331 400 326T379 320H375Q362 320 355 325T343 343L264 604L130 343Q117 320 93 320H89Q65 320 65 337Q65 346 69 355L227 664Q233 675 241 679T263 684H283Q296 684 303
680T315 664L407 355Q409 350 409 341Z" />
<glyph unicode="_" glyph-name="underscore" horiz-adv-x="534" d="M-53 -138T-57 -134T-61 -118V-117Q-61 -102 -55 -96T-38 -90H497Q507 -90 511 -94T515 -110V-111Q515 -126 509 -132T492 -138H-43Q-53 -138 -57 -134Z" />
<glyph unicode="`" glyph-name="grave" horiz-adv-x="256" d="M199 585T185 589T164 603L129 642Q88 689 79 701T70 720Q71 727 82 729T118 732Q142 732 157 726T180 706Q215 645 226 623T238 594Q238 585 215 585Q199 585 185 589Z" />
<glyph unicode="a" glyph-name="a" d="M517 71T517 64Q517 49 513 27Q510 10 491 2T453 -6Q363 -6 363 92V102Q334 46 294 20T207 -6Q169 -6 131 13T67 81T40 210Q40 303 70 375T156 488T285 529Q355 529 412 475Q421 502 429 513T457 525H463Q477 525 482 520T488
504Q482 446 465 285T448 107Q448 80 457 73T484 66Q491 66 499 68T511 71Q517 71 517 64ZM391 385T397 417Q348 456 293 456Q202 456 165 389T127 216Q127 136 154 102T226 67Q266 67 307 106T376 236L389 367Q391 385 397 417Z" />
<glyph unicode="b" glyph-name="b" horiz-adv-x="569" d="M367 529T409 511T481 445T511 316Q511 223 478 150T385 36T246 -6Q203 -6 169 10T113 48Q99 -2 71 -2H63Q49 -2 44 3T38 20L113 730Q114 742 124 747T155 752H159Q180 752 188 747T197 730L165 425Q195
478 236 503T324 529Q367 529 409 511ZM340 67T382 135T424 310Q424 390 392 423T305 456Q264 456 222 418T151 290L137 156Q135 134 129 106Q175 67 238 67Q340 67 382 135Z" />
<glyph unicode="c" glyph-name="c" horiz-adv-x="485" d="M155 -6T101 44T47 204Q47 346 111 437T311 529Q354 529 385 521T434 500T451 477Q451 466 438 447T412 427Q410 427 403 431T390 439Q354 457 301 457Q225 457 180 398T134 210Q134 135 166 101T270 66Q326
66 380 88Q402 97 404 97Q407 97 408 95T410 85Q410 62 407 47T394 23Q376 7 336 1T263 -6Q155 -6 101 44Z" />
<glyph unicode="d" glyph-name="d" horiz-adv-x="565" d="M544 71T544 64Q544 49 540 27Q537 10 518 2T480 -6Q390 -6 390 92V102Q360 46 319 20T229 -6Q186 -6 144 13T71 81T41 210Q41 302 72 375T160 488T292 529Q374 529 428 484L455 730Q456 742 466 747T497
752H501Q522 752 530 747T539 730Q529 637 502 382T475 107Q475 80 484 73T511 66Q518 66 526 68T538 71Q544 71 544 64ZM421 418Q373 456 304 456Q209 456 169 388T129 216Q129 134 159 101T248 67Q289 67 331 106T402 234L421 418Z" />
<glyph unicode="e" glyph-name="e" horiz-adv-x="539" d="M170 213T133 220V210Q133 131 170 99T279 66Q321 66 352 77T413 105Q430 115 434 115Q438 115 439 113T441 103Q441 84 436 58Q432 36 402 22T335 1T272 -6Q46 -6 46 201Q46 346 114 437T321 529Q380
529 417 508T472 456T489 396Q489 300 412 257T219 213Q170 213 133 220ZM162 457T138 285H209Q272 285 337 304T402 388Q402 417 378 437T312 457Q162 457 138 285Z" />
<glyph unicode="f" glyph-name="f" horiz-adv-x="325" d="M89 -2T81 3T72 20L117 451H77Q67 451 64 458T60 478V482Q60 497 65 510T85 523H125L135 624Q148 756 278 756Q349 756 349 725Q349 715 340 696T323 677Q321 677 311 680T278 684Q252 684 237 670T218
614L209 523H296Q305 523 308 519T312 504V501Q312 484 299 468T267 451H201L156 20Q153 -2 114 -2H110Q89 -2 81 3Z" />
<glyph unicode="g" glyph-name="g" horiz-adv-x="546" d="M489 525T494 520T500 504L457 99Q445 -19 415 -87T336 -183T213 -212Q165 -212 126 -201T64 -173T41 -141Q41 -86 55 -86Q58 -86 79 -101T134 -128T213 -140Q287 -140 326 -82T375 108Q345 52 304 26T214
0Q175 0 136 19T69 85T42 210Q42 303 73 375T160 488T292 529Q365 529 424 475Q433 502 441 513T469 525H475Q489 525 494 520ZM403 385T409 417Q357 456 300 456Q206 456 168 389T129 216Q129 140 157 107T233 73Q274 73 316 113T388 244L401 367Q403 385 409
417Z" />
<glyph unicode="h" glyph-name="h" horiz-adv-x="565" d="M374 -6T374 92Q374 104 386 220L389 251L402 371Q406 412 386 434T326 456Q285 456 241 420T167 297L138 20Q137 10 126 4T96 -2H92Q54 -2 54 19L129 730Q130 742 140 747T171 752H175Q196 752 204 747T213
730L181 432Q253 529 356 529Q425 529 456 494T488 399Q487 383 483 347T475 265Q459 123 459 107Q459 80 468 73T495 66Q502 66 510 68T522 71Q528 71 528 64Q528 49 524 27Q521 10 502 2T464 -6Q374 -6 374 92Z" />
<glyph unicode="i" glyph-name="i" horiz-adv-x="265" d="M130 616T121 622T111 640L117 696Q120 720 168 720Q192 720 201 714T211 696L205 640Q203 629 191 623T154 616Q130 616 121 622ZM63 -6T63 89Q63 109 71 186Q75 237 87 350T104 503Q105 515 115 520T146
525H150Q171 525 179 520T188 503Q182 445 165 286T148 107Q148 80 157 73T183 66Q190 66 198 68T210 71Q216 71 216 64Q216 49 212 27Q209 10 190 2T152 -6Q63 -6 63 89Z" />
<glyph unicode="j" glyph-name="j" horiz-adv-x="276" d="M149 614T140 619T130 637L136 692Q139 716 187 716Q211 716 220 710T230 692L224 637Q221 614 173 614Q149 614 140 619ZM-23 -212T-45 -201T-67 -171Q-67 -123 -56 -123Q-53 -123 -39 -131T0 -140Q26
-140 41 -124T60 -66L120 503Q123 525 162 525H166Q187 525 195 520T204 503L143 -74Q135 -152 98 -182T11 -212Q-23 -212 -45 -201Z" />
<glyph unicode="k" glyph-name="k" horiz-adv-x="521" d="M486 504T474 492L256 272L457 28Q464 18 464 14Q464 5 455 2T419 -2H415Q394 -2 381 0T362 11L166 248H162L138 20Q135 -2 96 -2H92Q71 -2 63 3T54 20L129 730Q131 752 171 752H175Q196 752 204 747T213
730L166 283H170L394 511Q407 525 448 525H452Q468 525 477 522T486 513Q486 504 474 492Z" />
<glyph unicode="l" glyph-name="l" horiz-adv-x="297" d="M125 -6T101 17T76 86Q76 98 77 105L141 730Q142 742 152 747T183 752H187Q210 752 218 746T225 723L161 122Q160 115 160 104Q160 84 168 75T197 66Q204 66 212 68T224 71Q230 71 230 64Q230 49 226 27Q223
10 204 2T166 -6Q125 -6 101 17Z" />
<glyph unicode="m" glyph-name="m" horiz-adv-x="848" d="M803 71T803 64Q803 49 799 27Q796 10 777 2T739 -6Q649 -6 649 92Q649 114 666 267Q677 368 677 379Q677 456 601 456Q564 456 523 421T452 304L422 20Q421 9 410 4T380 -2H376Q338 -2 338 19L375 373L376
386Q376 419 356 437T299 456Q261 456 221 422T151 307L121 20Q118 -2 79 -2H75Q56 -2 46 4T37 19L75 379Q81 436 81 457Q81 475 81 481T80 491Q80 505 100 509T136 514Q150 514 156 494T162 447V428Q194 479 237 504T329 529Q391 529 422 500T460 421Q492 475
537 502T631 529Q700 529 731 494T763 399Q762 383 758 347T750 265Q734 123 734 107Q734 80 743 73T770 66Q777 66 785 68T797 71Q803 71 803 64Z" />
<glyph unicode="n" glyph-name="n" horiz-adv-x="557" d="M511 71T511 64Q511 49 507 27Q504 10 485 2T447 -6Q357 -6 357 92L359 126L361 149Q365 197 374 270Q385 369 385 379Q385 456 309 456Q268 456 224 419T150 295L121 20Q118 -2 79 -2H75Q56 -2 46 4T37
19L72 351Q81 445 81 457Q81 475 81 481T80 491Q80 505 100 509T136 514Q162 514 162 447V428Q236 529 339 529Q408 529 439 494T471 399Q470 383 466 347T458 265Q442 123 442 107Q442 80 451 73T478 66Q485 66 493 68T505 71Q511 71 511 64Z" />
<glyph unicode="o" glyph-name="o" horiz-adv-x="569" d="M150 -6T98 49T45 209Q45 296 73 368T160 485T309 529Q407 529 458 474T510 312Q510 159 442 77T252 -6Q150 -6 98 49ZM337 66T380 128T423 310Q423 385 393 421T298 457Q217 457 174 392T131 212Q131
138 162 102T257 66Q337 66 380 128Z" />
<glyph unicode="p" glyph-name="p" horiz-adv-x="573" d="M372 529T414 510T486 444T516 318Q516 224 485 151T397 36T265 -6Q221 -6 187 10T130 47L106 -186Q104 -197 94 -202T64 -208H60Q22 -208 22 -187L81 383Q87 440 87 457Q87 475 87 481T86 491Q86 505
106 509T142 514Q168 514 168 439V427Q198 480 239 504T329 529Q372 529 414 510ZM350 66T389 135T429 312Q429 456 310 456Q269 456 227 417T155 290L137 111Q156 94 185 80T253 66Q350 66 389 135Z" />
<glyph unicode="q" glyph-name="q" horiz-adv-x="566" d="M507 525T512 520T518 503L446 -186Q445 -198 435 -203T404 -208H400Q379 -208 371 -203T362 -186L391 98Q361 45 320 20T232 -6Q189 -6 147 13T75 81T45 210Q45 303 78 375T171 488T310 529Q353 529 387
513T443 475Q448 494 457 508Q469 525 485 525H493Q507 525 512 520ZM419 367Q422 390 427 417Q381 456 318 456Q216 456 174 389T132 216Q132 67 251 67Q292 67 334 105T405 233L419 367Z" />
<glyph unicode="r" glyph-name="r" horiz-adv-x="366" d="M338 529T353 521T369 491Q369 473 359 454T340 435Q337 435 328 440T301 446Q262 446 228 404T174 288L146 20Q143 -2 104 -2H100Q62 -2 62 19L100 373Q106 421 106 457Q106 470 106 478T105 491Q105
505 125 509T161 514Q188 514 188 464Q188 452 186 428Q209 475 244 502T319 529Q338 529 353 521Z" />
<glyph unicode="s" glyph-name="s" horiz-adv-x="413" d="M120 -6T74 8T27 64Q27 78 32 91T43 105Q46 105 64 94T107 75T162 66Q209 66 239 88T270 150Q270 184 248 201T180 234Q142 247 116 262T72 304T53 375Q53 447 104 488T232 529Q277 529 318 517T359 483Q359
470 346 452T324 433Q321 433 308 440T277 452T234 457Q190 457 166 439T141 389Q141 355 165 337T234 301Q274 286 298 272T339 232T356 165Q356 116 333 77T266 16T167 -6Q120 -6 74 8Z" />
<glyph unicode="t" glyph-name="t" horiz-adv-x="342" d="M152 -6T119 17T85 104Q85 123 99 262T120 451H70Q60 451 57 458T53 478Q53 523 78 523H128L140 628Q141 640 151 645T181 650H185Q206 650 214 645T223 628L212 523H297Q306 523 309 519T313 504Q313
499 309 486T295 462T268 451H204Q199 403 185 270T170 123Q170 91 183 79T218 66Q239 66 249 69T263 73Q270 73 270 64Q270 48 265 27Q261 10 242 2T197 -6Q152 -6 119 17Z" />
<glyph unicode="u" glyph-name="u" horiz-adv-x="557" d="M521 71T521 64Q521 49 517 27Q514 10 495 2T457 -6Q367 -6 367 92V102Q329 46 284 20T189 -6Q120 -6 89 28T58 127Q58 137 60 161L95 503Q96 515 106 520T137 525H141Q162 525 170 520T179 503L145 173Q143
153 143 144Q143 104 160 86T219 67Q261 67 305 106T379 237L407 503Q408 515 418 520T449 525H453Q474 525 482 520T491 503Q481 416 470 303Q452 121 452 107Q452 80 461 73T488 66Q495 66 503 68T515 71Q521 71 521 64Z" />
<glyph unicode="v" glyph-name="v" horiz-adv-x="485" d="M156 -2T152 14L42 497L40 508Q42 525 85 525H93Q128 525 132 509L191 245L223 104H228L244 144Q266 202 285 245L400 509Q403 517 415 521T441 525H442Q483 525 483 510Q483 503 479 494L267 14Q260 -2
226 -2H191Q156 -2 152 14Z" />
<glyph unicode="w" glyph-name="w" horiz-adv-x="747" d="M139 -2T136 14L54 486Q51 501 51 508Q51 516 62 520T96 525H105Q141 525 144 509L196 178L203 109H207L232 179L352 508Q359 525 393 525H404Q438 525 441 508L495 173L504 109H508L527 171L651 509Q656
525 694 525H696Q736 525 736 510Q736 503 732 494L547 14Q540 -2 506 -2H473Q438 -2 435 14L386 350L384 377H380L371 347L249 14Q244 -2 208 -2H175Q139 -2 136 14Z" />
<glyph unicode="x" glyph-name="x" horiz-adv-x="485" d="M14 -2T4 1T-7 13Q-7 20 2 33L189 268L63 490Q56 500 56 508Q58 517 68 521T104 525H115Q132 525 142 522T157 510L236 373L251 346H256L275 372L386 511Q396 525 430 525H434Q478 525 478 510Q478 502
469 490L294 270L431 33Q438 23 438 15Q436 6 426 2T390 -2H379Q362 -2 352 1T337 13L240 182L234 194H230L219 180L85 12Q74 -2 41 -2H37Q14 -2 4 1Z" />
<glyph unicode="y" glyph-name="y" horiz-adv-x="481" d="M485 525T485 509Q485 503 481 494L152 -187Q142 -208 103 -208H88Q57 -208 57 -193Q57 -188 64 -175L169 28L43 494Q41 502 41 508Q41 516 52 520T86 525H94Q128 525 132 509L209 227L230 148H232Q247
185 267 227L401 509Q409 525 444 525H447Q485 525 485 509Z" />
<glyph unicode="z" glyph-name="z" horiz-adv-x="489" d="M26 0T20 15T14 46Q14 57 19 62L352 451H96Q86 451 83 458T79 478V480Q79 495 84 509T104 523H455Q461 523 465 507T470 475Q470 465 466 461L134 72H409Q419 72 422 65T426 45V42Q426 26 421 13T401 0H31Q26
0 20 15Z" />
<glyph unicode="{" glyph-name="braceleft" horiz-adv-x="274" d="M90 -138T75 -119T59 -46Q59 -24 72 93Q81 172 81 191Q81 223 72 243T40 274Q19 283 19 303V305Q19 329 24 338T49 356Q81 369 94 399T113 485L131 652Q138 716 164 742T221 768H271Q289 768 289
748V746Q289 730 284 718T265 706H243Q223 706 214 691T202 645L184 469Q174 371 89 314Q108 304 130 272T152 186Q152 168 142 84Q141 70 136 27T131 -38Q131 -57 137 -66T160 -76H182Q200 -76 200 -96V-97Q200 -113 195 -125T176 -138H126Q90 -138 75 -119Z"
/>
<glyph unicode="|" glyph-name="bar" horiz-adv-x="250" d="M154 770T154 748V-118Q154 -140 130 -140H120Q96 -140 96 -118V748Q96 770 120 770H130Q154 770 154 748Z" />
<glyph unicode="}" glyph-name="braceright" horiz-adv-x="274" d="M-17 -138T-17 -118V-116Q-17 -100 -12 -88T7 -76H29Q49 -76 58 -61T70 -15L88 161Q98 259 183 316Q164 326 142 358T120 444Q120 462 130 546Q131 560 136 603T141 668Q141 687 135 696T112
706H90Q72 706 72 726V728Q72 744 77 756T96 768H146Q171 768 192 747T213 676Q213 654 200 537Q191 458 191 439Q191 407 200 387T232 356Q253 347 253 327V325Q253 302 247 292T223 274Q190 262 178 232T159 145L141 -22Q134 -86 108 -112T51 -138H1Q-17 -138
-17 -118Z" />
<glyph unicode="~" glyph-name="asciitilde" horiz-adv-x="547" d="M385 216T361 221T302 236Q297 237 282 241Q251 250 219 257T167 264Q149 264 130 234Q121 220 112 220Q107 220 104 222L97 226Q87 231 87 237Q87 239 91 251Q114 320 177 320Q197 320 221 315T280
300Q285 299 300 295Q331 286 363 279T415 272Q433 272 452 302Q461 316 470 316Q475 316 478 314L485 310Q495 305 495 299Q495 297 491 285Q468 216 405 216Q385 216 361 221Z" />
<glyph unicode="&#xa0;" glyph-name="uni00A0" horiz-adv-x="240" />
<glyph unicode="&#xa1;" glyph-name="exclamdown" horiz-adv-x="294" d="M140 415T132 420T123 437L130 503Q132 525 172 525H189Q210 525 218 520T227 503L220 437Q217 415 178 415H161Q140 415 132 420ZM63 -179T55 -174T47 -157Q47 -144 91 118Q108 212 122
299Q125 321 155 321H166Q194 321 194 299L146 -157Q143 -179 104 -179H84Q63 -179 55 -174Z" />
<glyph unicode="&#xa2;" glyph-name="cent" horiz-adv-x="440" d="M390 525T420 509T451 477Q451 466 438 447T412 427Q410 427 403 431T390 439Q366 451 330 456L289 67Q335 69 380 88Q402 97 404 97Q407 97 408 95T410 85Q410 62 407 47T394 23Q368 -1 281 -6L276
-51Q273 -71 256 -71H254Q243 -71 240 -67T236 -51L241 -5Q144 0 96 50T47 204Q47 342 108 433T298 529L301 558Q302 578 321 578H323Q333 578 337 574T341 558L338 528Q390 525 420 509ZM134 141T162 106T249 67L290 457Q219 453 177 394T134 210Q134 141 162
106Z" />
<glyph unicode="&#xa3;" glyph-name="sterling" horiz-adv-x="491" d="M-2 0T-2 18Q-2 26 0 46Q1 58 10 65T36 81Q62 94 78 110T98 159L117 339H61Q51 339 48 346T44 366V367Q44 383 49 397T69 411H125L134 498Q155 706 361 706Q400 706 429 699T458 674Q458 667
450 646T431 625Q426 625 408 629T369 634Q298 634 262 603T218 503L209 411H355Q364 411 367 407T371 393V392Q371 387 367 374T353 350T326 339H201L192 249Q183 159 163 124T116 72H396Q407 72 410 65T413 42L412 23Q411 14 404 7T388 0H14Q-2 0 -2 18Z" />
<glyph unicode="&#xa4;" glyph-name="currency" horiz-adv-x="534" d="M88 143T78 153L75 156Q69 162 69 170Q69 180 82 193L108 217Q85 254 85 300Q85 374 131 427L109 450Q100 461 100 470Q100 480 109 489L111 491Q119 499 130 499Q143 499 151 489L173 465Q224
500 281 500Q338 500 382 466L408 490Q420 500 429 500Q433 500 438 498T446 493L449 490Q456 483 456 474Q456 462 443 450L416 426Q442 385 442 339Q442 305 429 274T394 217L416 193Q425 183 425 172Q425 164 417 156L413 152Q404 143 393 143Q384 143 373 154L351
178Q301 145 244 145Q185 145 143 178L116 153Q105 143 94 143Q88 143 78 153ZM283 206T313 223T361 270T380 333Q380 378 350 408T275 439Q241 439 212 421T164 373T146 309Q146 265 175 236T250 206Q283 206 313 223Z" />
<glyph unicode="&#xa5;" glyph-name="yen" horiz-adv-x="559" d="M576 681T566 667L375 422H501Q510 422 513 416T517 397V392Q514 355 494 355H323L313 259H484Q493 259 496 253T500 234V229Q497 192 477 192H306L288 20Q285 -2 246 -2H238Q217 -2 209 3T200
20L218 192H49Q40 192 37 198T33 217V222Q33 235 38 247T56 259H225L235 355H66Q57 355 54 361T50 380V385Q53 422 73 422H199L59 667Q53 676 53 683Q53 693 63 697T100 702H111Q128 702 138 699T153 687L291 441L485 688Q495 702 531 702H540Q576 701 576 686Q576
681 566 667Z" />
<glyph unicode="&#xa6;" glyph-name="brokenbar" horiz-adv-x="250" d="M189 770T194 765T199 748Q199 743 184 599L165 425Q162 403 139 403H129Q116 403 112 408T107 425Q109 446 113 490T123 583Q130 640 134 681T141 748Q143 770 167 770H177Q189 770 194
765ZM132 226T137 221T142 204Q142 206 126 46Q129 69 108 -118Q105 -140 82 -140H72Q59 -140 55 -135T50 -118Q50 -108 67 47Q85 217 84 204Q86 226 110 226H120Q132 226 137 221Z" />
<glyph unicode="&#xa7;" glyph-name="section" horiz-adv-x="429" d="M125 -6T88 6T50 41Q50 65 54 80T66 95Q69 95 86 87T123 72T166 66Q208 66 231 84T255 131Q255 150 244 162T218 182T170 200Q133 213 109 226T67 267T49 338Q49 381 67 415T116 474Q86 502
86 549Q86 602 112 637T178 689T262 706Q305 706 345 694T385 658Q385 648 373 629T349 610Q345 611 322 622T262 634Q219 634 197 616T174 568Q174 542 193 529T238 508T272 497Q322 479 350 452T379 366Q379 278 311 227Q342 198 342 154Q342 99 316 63T250 11T167
-6Q125 -6 88 6ZM256 272T274 293T293 353Q293 387 270 404T199 435Q173 428 154 407T134 349Q134 313 157 297T229 266Q256 272 274 293Z" />
<glyph unicode="&#xa8;" glyph-name="dieresis" horiz-adv-x="256" d="M61 607T53 612T44 629L49 680Q52 702 95 702Q116 702 124 697T133 680L128 629Q125 607 82 607Q61 607 53 612ZM205 607T197 612T188 629L193 680Q195 702 239 702Q260 702 268 697T277 680L272
629Q269 607 226 607Q205 607 197 612Z" />
<glyph unicode="&#xa9;" glyph-name="copyright" horiz-adv-x="739" d="M271 -7T189 41T58 171T10 352Q10 450 58 531T188 660T369 708Q467 708 549 661T680 532T729 352Q729 254 681 172T550 41T369 -7Q271 -7 189 41ZM454 41T525 83T639 196T681 352Q681 436
639 507T526 619T369 660Q285 660 214 619T100 507T58 352Q58 268 100 197T213 83T369 41Q454 41 525 83ZM287 135T240 187T193 347Q193 560 387 560Q430 560 465 548T501 523Q501 515 494 502T480 488Q479 488 455 501T388 515Q316 515 282 475T247 347Q247 261
281 221T385 180Q415 180 436 187T471 202T488 210Q494 210 501 197T509 178Q509 170 492 160T447 142T385 135Q287 135 240 187Z" />
<glyph unicode="&#xaa;" glyph-name="ordfeminine" horiz-adv-x="313" d="M98 439T77 469T55 546Q55 555 57 575Q65 637 98 672T178 708Q214 708 241 681Q246 695 250 700T266 706H280Q297 706 297 695L294 662L291 639Q287 600 284 583Q282 568 280 543T276 503V499Q276
482 287 482Q291 482 294 483T300 484Q305 484 305 472Q305 456 294 448T259 440Q218 440 216 483Q190 439 144 439Q98 439 77 469ZM178 488T194 500T220 538L229 621Q231 640 233 649Q210 659 188 659Q157 659 141 639T118 577Q115 562 115 546Q115 520 126 504T161
488Q178 488 194 500Z" />
<glyph unicode="&#xab;" glyph-name="guillemotleft" horiz-adv-x="471" d="M220 113Q226 104 226 97Q226 88 214 75T188 61Q177 61 167 74L54 230Q44 244 44 255Q44 270 59 286L206 442Q218 454 229 454Q238 454 249 445T261 424Q261 418 251 402L125 258L220
113ZM433 418T423 402L297 258L392 113Q398 104 398 97Q398 88 386 75T360 61Q349 61 339 74L226 230Q216 244 216 255Q216 270 231 286L378 442Q390 454 401 454Q410 454 421 445T433 424Q433 418 423 402Z" />
<glyph unicode="&#xac;" glyph-name="logicalnot" horiz-adv-x="560" d="M449 77T443 82T437 99L455 265H64Q49 265 43 271T37 292V295Q36 338 71 338H505Q521 338 526 331T532 308L510 99Q507 77 478 77H465Q449 77 443 82Z" />
<glyph unicode="&#xad;" glyph-name="uni00AD" horiz-adv-x="320" d="M47 229T44 236T40 256V258Q40 273 45 287T65 301H259Q276 301 276 276V274Q276 229 251 229H57Q47 229 44 236Z" />
<glyph unicode="&#xae;" glyph-name="registered" horiz-adv-x="739" d="M271 -6T189 42T58 172T10 353Q10 451 58 532T188 661T369 709Q467 709 549 662T680 533T729 353Q729 255 681 173T550 42T369 -6Q271 -6 189 42ZM454 42T525 84T639 197T681 353Q681 437
639 508T526 620T369 661Q285 661 214 620T100 508T58 353Q58 269 100 198T213 84T369 42Q454 42 525 84ZM249 144T249 157V540Q249 550 253 554T267 558H366Q437 558 472 533T508 454Q508 417 490 393T440 355V351Q457 345 468 329T493 278L539 162L541 153Q541
144 516 144H510Q501 144 495 146T487 153L442 269Q429 303 410 315T354 327H301V157Q301 144 277 144H273Q249 144 249 157ZM379 372Q410 372 432 393T454 444Q454 479 433 496T375 513H301V372H379Z" />
<glyph unicode="&#xaf;" glyph-name="overscore" horiz-adv-x="255" d="M30 612T27 619T23 639V646Q26 683 48 683H274Q284 683 287 677T291 657V651Q291 636 286 624T266 612H40Q30 612 27 619Z" />
<glyph unicode="&#xb0;" glyph-name="degree" horiz-adv-x="345" d="M133 441T100 475T66 560Q66 601 85 634T137 686T213 706Q264 706 298 672T333 587Q333 546 314 513T260 460T186 441Q133 441 100 475ZM228 486T255 513T283 582Q283 615 262 638T209 661Q170
661 143 632T115 563Q115 531 136 509T190 486Q228 486 255 513Z" />
<glyph unicode="&#xb1;" glyph-name="plusminus" horiz-adv-x="560" d="M330 593T336 586T342 563L324 394H492Q507 394 513 388T519 368Q519 353 510 340T485 327H317L299 159Q296 129 266 129H259Q244 129 238 136T232 159L250 327H81Q54 327 54 353Q54 368
63 381T88 394H257L275 563Q278 593 308 593H315Q330 593 336 586ZM483 73T489 67T495 47Q495 29 485 15T460 0H36Q21 0 15 6T9 26Q9 43 19 58T44 73H468Q483 73 489 67Z" />
<glyph unicode="&#xb2;" glyph-name="uni00B2" horiz-adv-x="320" d="M47 298T44 308T40 328Q40 332 41 333L219 530Q257 572 257 611Q257 635 240 649T191 663Q167 663 150 657T119 642T102 634Q98 634 92 644T86 661Q86 678 124 691T195 705Q247 705 277 681T308
618Q308 588 297 564T261 511L105 339H271Q281 339 281 324V322Q281 313 278 306T267 298H51Q47 298 44 308Z" />
<glyph unicode="&#xb3;" glyph-name="uni00B3" horiz-adv-x="320" d="M120 289T84 295T48 319Q48 353 57 353Q59 353 82 343T147 332Q183 332 211 354T240 427Q240 462 220 476T160 490H140Q130 490 130 506V508Q130 516 133 524T145 532H162Q192 532 211 546T239
579T248 615Q248 635 234 650T184 665Q147 665 124 656T98 646Q93 646 87 657T81 676Q81 688 120 697T190 707Q240 707 269 685T298 618Q298 583 279 559T229 523L228 520Q254 513 272 489T291 427Q291 379 269 348T213 303T147 289Q120 289 84 295Z" />
<glyph unicode="&#xb4;" glyph-name="acute" horiz-adv-x="256" d="M67 585T67 594Q67 601 80 623T136 706Q146 720 161 726T201 732Q248 732 248 720Q248 714 238 703T183 644Q183 644 142 603Q133 594 119 590T89 585Q67 585 67 594Z" />
<glyph unicode="&#xb5;" glyph-name="uni00B5" horiz-adv-x="566" d="M546 71T546 64Q546 27 533 11T482 -6Q392 -6 392 92V102Q354 46 309 20T214 -6Q184 -6 153 3L133 -186Q132 -196 121 -202T91 -208H87Q49 -208 49 -187L120 503Q121 515 131 520T162 525H166Q187
525 195 520T204 503Q199 443 183 300Q168 158 168 144Q168 67 244 67Q286 67 330 106T404 237L432 503Q433 515 443 520T474 525H478Q499 525 507 520T516 503L505 393Q477 134 477 107Q477 80 486 73T513 66Q520 66 528 68T540 71Q546 71 546 64Z" />
<glyph unicode="&#xb6;" glyph-name="paragraph" horiz-adv-x="515" d="M206 -173T203 -168T199 -151L241 247Q189 253 148 281T84 353T61 450Q61 527 95 583T188 670T313 700H526Q537 700 540 696T544 680L542 658Q541 638 520 638H484L401 -151Q398 -173 379
-173H357Q346 -173 343 -168T339 -151L422 638H344L261 -151Q258 -173 239 -173H217Q206 -173 203 -168Z" />
<glyph unicode="&#xb7;" glyph-name="middot" horiz-adv-x="267" d="M115 309T102 321T89 354Q89 379 105 395T146 412Q166 412 179 399T192 366Q192 340 176 325T135 309Q115 309 102 321Z" />
<glyph unicode="&#xb8;" glyph-name="cedilla" horiz-adv-x="256" d="M222 -49T247 -62T273 -111Q273 -169 236 -189T148 -210Q116 -210 84 -201T51 -169Q51 -147 54 -142T63 -136Q65 -137 85 -149T141 -161Q201 -161 201 -121Q201 -107 192 -101T166 -89Q153
-84 147 -80T141 -69Q142 -65 148 -49T168 0H211L191 -49H195Q222 -49 247 -62Z" />
<glyph unicode="&#xb9;" glyph-name="uni00B9" horiz-adv-x="300" d="M144 297T144 309L180 650L103 633Q94 633 94 656Q94 664 96 667T106 673L215 702Q222 702 227 699T232 690L192 309Q191 297 169 297H165Q144 297 144 309Z" />
<glyph unicode="&#xba;" glyph-name="ordmasculine" horiz-adv-x="337" d="M53 441T53 547Q53 637 92 671T183 706Q282 706 282 600Q282 509 245 475T156 441Q53 441 53 547ZM239 477T239 598Q239 636 224 653T178 670Q141 670 119 642T96 549Q96 510 111 494T157
477Q239 477 239 598Z" />
<glyph unicode="&#xbb;" glyph-name="guillemotright" horiz-adv-x="471" d="M253 245T238 229L91 73Q79 61 68 61Q59 61 48 70T36 91Q36 97 46 113L172 257L77 402Q71 411 71 418Q71 427 83 440T109 454Q120 454 130 441L243 285Q253 271 253 260Q253 245 238
229ZM425 271T425 260Q425 245 410 229L263 73Q251 61 240 61Q231 61 220 70T208 91Q208 97 218 113L344 257L249 402Q243 411 243 418Q243 427 255 440T281 454Q292 454 302 441L415 285Q425 271 425 260Z" />
<glyph unicode="&#xbc;" glyph-name="onequarter" horiz-adv-x="671" d="M53 -2T53 4Q53 9 58 14L535 687Q546 703 567 703H580Q593 703 593 697Q593 694 588 687L111 14Q100 -2 79 -2H66Q53 -2 53 4ZM144 297T144 309L180 650L103 633Q94 633 94 656Q94 664 96
667T106 673L215 702Q222 702 227 699T232 690L192 309Q191 297 169 297H165Q144 297 144 309ZM501 -2T498 1T494 11L503 97H325Q321 97 318 105T314 123Q314 131 316 133L537 401Q543 410 557 410H566Q583 410 583 397L556 139H596Q606 139 606 123V122Q606 113
603 105T591 97H551L542 11Q541 5 537 2T524 -2H510Q501 -2 498 1ZM507 139L520 265Q522 275 524 295L527 325L524 326L373 139H507Z" />
<glyph unicode="&#xbd;" glyph-name="onehalf" horiz-adv-x="728" d="M55 -2T55 4Q55 9 60 14L537 687Q548 703 569 703H582Q595 703 595 697Q595 694 590 687L113 14Q102 -2 81 -2H68Q55 -2 55 4ZM144 297T144 309L180 650L103 633Q94 633 94 656Q94 664 96 667T106
673L215 702Q222 702 227 699T232 690L192 309Q191 297 169 297H165Q144 297 144 309ZM402 0T398 11T394 30Q394 34 395 36L575 235Q615 279 615 317Q615 342 597 356T547 370Q523 370 506 364T474 349T457 340Q453 340 447 350T441 369Q441 386 480 399T551 412Q604
412 634 388T665 325Q665 294 655 269T618 216L460 42H629Q639 42 639 26V24Q639 15 636 8T624 0H406Q402 0 398 11Z" />
<glyph unicode="&#xbe;" glyph-name="threequarters" horiz-adv-x="738" d="M120 289T84 295T48 319Q48 353 57 353Q59 353 82 343T147 332Q183 332 211 354T240 427Q240 462 220 476T160 490H140Q130 490 130 506V508Q130 516 133 524T145 532H162Q192 532 211
546T239 579T248 615Q248 635 234 650T184 665Q147 665 124 656T98 646Q93 646 87 657T81 676Q81 688 120 697T190 707Q240 707 269 685T298 618Q298 583 279 559T229 523L228 520Q254 513 272 489T291 427Q291 379 269 348T213 303T147 289Q120 289 84 295ZM119
-2T119 4Q119 9 124 14L601 687Q612 703 633 703H646Q659 703 659 697Q659 694 654 687L177 14Q166 -2 145 -2H132Q119 -2 119 4ZM569 -2T566 1T562 11L571 97H393Q389 97 386 105T382 123Q382 131 384 133L605 401Q611 410 625 410H634Q651 410 651 397L624 139H664Q674
139 674 123V122Q674 113 671 105T659 97H619L610 11Q609 5 605 2T592 -2H578Q569 -2 566 1ZM575 139L588 265Q590 275 592 295L595 325L592 326L441 139H575Z" />
<glyph unicode="&#xbf;" glyph-name="questiondown" horiz-adv-x="425" d="M331 525T339 520T347 503L340 437Q338 415 298 415H281Q260 415 252 420T243 437L250 503Q253 525 293 525H310Q331 525 339 520ZM316 321T316 300Q316 268 288 224T213 139Q172 102
151 80T116 33T102 -20Q102 -109 218 -109Q246 -109 270 -102T321 -84Q341 -75 346 -75Q353 -75 362 -93T372 -124Q372 -149 314 -166T194 -183Q105 -183 56 -141T6 -33Q6 20 36 61T125 157Q176 203 202 233T238 301Q240 311 248 316T273 321H288Q316 321 316 300Z"
/>
<glyph unicode="&#xc0;" glyph-name="Agrave" horiz-adv-x="613" d="M-23 -2T-23 14Q-23 19 -18 29L287 686Q294 702 328 702H357Q392 702 396 686L564 28Q565 24 565 18Q565 -2 521 -2H513Q478 -2 474 14L432 178H138L64 14Q57 -2 23 -2H18Q-23 -2 -23 14ZM413
254L340 552Q334 575 334 610H332Q320 573 311 552L174 254H413ZM352 762T338 766T317 780L282 819Q241 866 232 878T223 897Q224 904 235 906T271 909Q295 909 310 903T333 883Q368 822 379 800T391 771Q391 762 368 762Q352 762 338 766Z" />
<glyph unicode="&#xc1;" glyph-name="Aacute" horiz-adv-x="613" d="M-23 -2T-23 14Q-23 19 -18 29L287 686Q294 702 328 702H357Q392 702 396 686L564 28Q565 24 565 18Q565 -2 521 -2H513Q478 -2 474 14L432 178H138L64 14Q57 -2 23 -2H18Q-23 -2 -23 14ZM413
254L340 552Q334 575 334 610H332Q320 573 311 552L174 254H413ZM304 762T304 771Q304 778 317 800T373 883Q383 897 398 903T438 909Q485 909 485 897Q485 891 475 880T420 821Q420 821 379 780Q370 771 356 767T326 762Q304 762 304 771Z" />
<glyph unicode="&#xc2;" glyph-name="Acircumflex" horiz-adv-x="613" d="M-23 -2T-23 14Q-23 19 -18 29L287 686Q294 702 328 702H357Q392 702 396 686L564 28Q565 24 565 18Q565 -2 521 -2H513Q478 -2 474 14L432 178H138L64 14Q57 -2 23 -2H18Q-23 -2 -23 14ZM413
254L340 552Q334 575 334 610H332Q320 573 311 552L174 254H413ZM221 753T221 765Q221 774 228 785L294 873Q310 895 342 895H367Q399 895 411 873L458 785Q463 778 463 768Q461 753 437 753H435Q416 753 403 766L348 840L279 766Q263 753 244 753H242Q221 753
221 765Z" />
<glyph unicode="&#xc3;" glyph-name="Atilde" horiz-adv-x="613" d="M-23 -2T-23 14Q-23 19 -18 29L287 686Q294 702 328 702H357Q392 702 396 686L564 28Q565 24 565 18Q565 -2 521 -2H513Q478 -2 474 14L432 178H138L64 14Q57 -2 23 -2H18Q-23 -2 -23 14ZM413
254L340 552Q334 575 334 610H332Q320 573 311 552L174 254H413ZM197 783Q191 790 191 800Q191 810 200 816Q257 857 307 857Q329 857 344 853T370 845T383 839Q413 826 427 826Q442 826 455 831T484 848Q495 855 502 855Q514 855 521 846L524 842Q531 834 531
826Q531 815 520 806Q467 762 414 762Q388 762 372 766T339 778Q335 780 321 786T295 793Q282 793 272 789T253 781T241 774Q229 768 220 768Q207 768 199 780L197 783Z" />
<glyph unicode="&#xc4;" glyph-name="Adieresis" horiz-adv-x="613" d="M-23 -2T-23 14Q-23 19 -18 29L287 686Q294 702 328 702H357Q392 702 396 686L564 28Q565 24 565 18Q565 -2 521 -2H513Q478 -2 474 14L432 178H138L64 14Q57 -2 23 -2H18Q-23 -2 -23 14ZM413
254L340 552Q334 575 334 610H332Q320 573 311 552L174 254H413ZM253 784T245 789T236 806L241 857Q244 879 287 879Q308 879 316 874T325 857L320 806Q317 784 274 784Q253 784 245 789ZM397 784T389 789T380 806L385 857Q387 879 431 879Q452 879 460 874T469
857L464 806Q461 784 418 784Q397 784 389 789Z" />
<glyph unicode="&#xc5;" glyph-name="Aring" horiz-adv-x="613" d="M-23 -2T-23 14Q-23 19 -18 29L287 686Q294 702 328 702H357Q392 702 396 686L564 28Q565 24 565 18Q565 -2 521 -2H513Q478 -2 474 14L432 178H138L64 14Q57 -2 23 -2H18Q-23 -2 -23 14ZM413
254L340 552Q334 575 334 610H332Q320 573 311 552L174 254H413ZM301 741T280 762T258 817Q258 855 286 882T351 910Q384 910 405 888T427 834Q427 796 400 769T334 741Q301 741 280 762ZM360 776T376 792T392 831Q392 850 380 862T348 875Q326 875 310 859T293
821Q293 801 305 789T337 776Q360 776 376 792Z" />
<glyph unicode="&#xc6;" glyph-name="AE" horiz-adv-x="915" d="M-30 -2T-38 1T-47 13Q-47 21 -41 31L347 673Q355 687 365 693T392 700H842Q859 700 859 678V674Q859 651 855 638T834 624H468L494 396H779Q796 396 796 374V370Q796 347 792 334T771 320H502L530
76H778Q795 76 795 54V50Q795 27 790 14T770 0H478Q462 0 455 7T445 29L429 178H134L37 14Q27 -2 -4 -2H-9Q-30 -2 -38 1ZM419 253L389 552V610H387L360 552L180 253H419Z" />
<glyph unicode="&#xc7;" glyph-name="Ccedilla" horiz-adv-x="619" d="M590 660T590 645Q590 633 575 610T550 586Q547 586 524 598T468 620T392 630Q255 630 192 537T128 286Q128 175 178 123T334 70Q389 70 429 82T493 106T519 118Q526 118 526 107Q526 91 523
70T512 39Q493 17 437 6T330 -6L312 -49H316Q343 -49 368 -62T394 -111Q394 -169 357 -189T269 -210Q237 -210 205 -201T172 -169Q172 -147 175 -142T184 -136Q186 -137 206 -149T262 -161Q322 -161 322 -121Q322 -107 313 -101T287 -89Q274 -84 268 -80T262 -69Q263
-66 269 -51T287 -5Q161 4 100 72T38 274Q38 465 124 585T407 706Q453 706 494 697T561 674Q590 660 590 645Z" />
<glyph unicode="&#xc8;" glyph-name="Egrave" horiz-adv-x="546" d="M58 0T52 5T45 24L112 670Q113 686 121 693T145 700H498Q515 700 515 678V673Q515 651 510 638T490 624H195L171 396H435Q452 396 452 374V368Q452 346 447 333T427 320H163L138 76H434Q451
76 451 54V49Q451 27 446 14T426 0H72Q58 0 52 5ZM333 762T319 766T298 780L263 819Q222 866 213 878T204 897Q205 904 216 906T252 909Q276 909 291 903T314 883Q349 822 360 800T372 771Q372 762 349 762Q333 762 319 766Z" />
<glyph unicode="&#xc9;" glyph-name="Eacute" horiz-adv-x="546" d="M58 0T52 5T45 24L112 670Q113 686 121 693T145 700H498Q515 700 515 678V673Q515 651 510 638T490 624H195L171 396H435Q452 396 452 374V368Q452 346 447 333T427 320H163L138 76H434Q451
76 451 54V49Q451 27 446 14T426 0H72Q58 0 52 5ZM285 762T285 771Q285 778 298 800T354 883Q364 897 379 903T419 909Q466 909 466 897Q466 891 456 880T401 821Q401 821 360 780Q351 771 337 767T307 762Q285 762 285 771Z" />
<glyph unicode="&#xca;" glyph-name="Ecircumflex" horiz-adv-x="546" d="M58 0T52 5T45 24L112 670Q113 686 121 693T145 700H498Q515 700 515 678V673Q515 651 510 638T490 624H195L171 396H435Q452 396 452 374V368Q452 346 447 333T427 320H163L138 76H434Q451
76 451 54V49Q451 27 446 14T426 0H72Q58 0 52 5ZM202 753T202 765Q202 774 209 785L275 873Q291 895 323 895H348Q380 895 392 873L439 785Q444 778 444 768Q442 753 418 753H416Q397 753 384 766L329 840L260 766Q244 753 225 753H223Q202 753 202 765Z" />
<glyph unicode="&#xcb;" glyph-name="Edieresis" horiz-adv-x="546" d="M58 0T52 5T45 24L112 670Q113 686 121 693T145 700H498Q515 700 515 678V673Q515 651 510 638T490 624H195L171 396H435Q452 396 452 374V368Q452 346 447 333T427 320H163L138 76H434Q451
76 451 54V49Q451 27 446 14T426 0H72Q58 0 52 5ZM234 784T226 789T217 806L222 857Q225 879 268 879Q289 879 297 874T306 857L301 806Q298 784 255 784Q234 784 226 789ZM378 784T370 789T361 806L366 857Q368 879 412 879Q433 879 441 874T450 857L445 806Q442
784 399 784Q378 784 370 789Z" />
<glyph unicode="&#xcc;" glyph-name="Igrave" horiz-adv-x="282" d="M79 -2T71 3T62 20L131 680Q133 702 173 702H181Q202 702 210 697T219 680L150 20Q147 -2 108 -2H100Q79 -2 71 3ZM190 762T176 766T155 780L120 819Q79 866 70 878T61 897Q62 904 73 906T109
909Q133 909 148 903T171 883Q206 822 217 800T229 771Q229 762 206 762Q190 762 176 766Z" />
<glyph unicode="&#xcd;" glyph-name="Iacute" horiz-adv-x="282" d="M79 -2T71 3T62 20L131 680Q133 702 173 702H181Q202 702 210 697T219 680L150 20Q147 -2 108 -2H100Q79 -2 71 3ZM142 762T142 771Q142 778 155 800T211 883Q221 897 236 903T276 909Q323 909
323 897Q323 891 313 880T258 821Q258 821 217 780Q208 771 194 767T164 762Q142 762 142 771Z" />
<glyph unicode="&#xce;" glyph-name="Icircumflex" horiz-adv-x="282" d="M79 -2T71 3T62 20L131 680Q133 702 173 702H181Q202 702 210 697T219 680L150 20Q147 -2 108 -2H100Q79 -2 71 3ZM59 753T59 765Q59 774 66 785L132 873Q148 895 180 895H205Q237 895
249 873L296 785Q301 778 301 768Q299 753 275 753H273Q254 753 241 766L186 840L117 766Q101 753 82 753H80Q59 753 59 765Z" />
<glyph unicode="&#xcf;" glyph-name="Idieresis" horiz-adv-x="282" d="M79 -2T71 3T62 20L131 680Q133 702 173 702H181Q202 702 210 697T219 680L150 20Q147 -2 108 -2H100Q79 -2 71 3ZM91 784T83 789T74 806L79 857Q82 879 125 879Q146 879 154 874T163 857L158
806Q155 784 112 784Q91 784 83 789ZM235 784T227 789T218 806L223 857Q225 879 269 879Q290 879 298 874T307 857L302 806Q299 784 256 784Q235 784 227 789Z" />
<glyph unicode="&#xd0;" glyph-name="Eth" horiz-adv-x="695" d="M492 700T567 632T643 415Q643 268 595 175T467 41T292 0H77Q63 0 57 5T50 24L81 320H16Q-1 320 -1 342Q-1 367 3 381T24 396H89L117 670Q118 686 126 693T150 700H365Q492 700 567 632ZM362 76T421
109T516 215T552 401Q552 519 498 571T350 624H200L176 396H288Q305 396 305 374Q305 349 301 335T280 320H168L143 76H293Q362 76 421 109Z" />
<glyph unicode="&#xd1;" glyph-name="Ntilde" horiz-adv-x="719" d="M69 -2T61 3T52 20L121 680Q123 702 163 702H184Q200 702 209 698T224 683L497 205Q512 177 519 145L526 146Q526 180 530 212L579 680Q581 702 621 702H628Q649 702 657 697T666 680L597 20Q594
-2 555 -2H535Q509 -2 501 12L222 501Q207 529 200 561L193 560Q193 526 189 494L139 20Q136 -2 97 -2H90Q69 -2 61 3ZM246 783Q240 790 240 800Q240 810 249 816Q306 857 356 857Q378 857 393 853T419 845T432 839Q462 826 476 826Q491 826 504 831T533 848Q544
855 551 855Q563 855 570 846L573 842Q580 834 580 826Q580 815 569 806Q516 762 463 762Q437 762 421 766T388 778Q384 780 370 786T344 793Q331 793 321 789T302 781T290 774Q278 768 269 768Q256 768 248 780L246 783Z" />
<glyph unicode="&#xd2;" glyph-name="Ograve" horiz-adv-x="731" d="M193 -6T123 67T53 282Q53 396 87 491T199 646T402 706Q537 706 607 634T678 420Q678 283 635 188T514 43T327 -6Q193 -6 123 67ZM411 70T467 109T555 225T586 410Q586 519 537 574T394 630Q278
630 211 543T144 291Q144 182 192 126T335 70Q411 70 467 109ZM412 762T398 766T377 780L342 819Q301 866 292 878T283 897Q284 904 295 906T331 909Q355 909 370 903T393 883Q428 822 439 800T451 771Q451 762 428 762Q412 762 398 766Z" />
<glyph unicode="&#xd3;" glyph-name="Oacute" horiz-adv-x="731" d="M193 -6T123 67T53 282Q53 396 87 491T199 646T402 706Q537 706 607 634T678 420Q678 283 635 188T514 43T327 -6Q193 -6 123 67ZM411 70T467 109T555 225T586 410Q586 519 537 574T394 630Q278
630 211 543T144 291Q144 182 192 126T335 70Q411 70 467 109ZM364 762T364 771Q364 778 377 800T433 883Q443 897 458 903T498 909Q545 909 545 897Q545 891 535 880T480 821Q480 821 439 780Q430 771 416 767T386 762Q364 762 364 771Z" />
<glyph unicode="&#xd4;" glyph-name="Ocircumflex" horiz-adv-x="731" d="M193 -6T123 67T53 282Q53 396 87 491T199 646T402 706Q537 706 607 634T678 420Q678 283 635 188T514 43T327 -6Q193 -6 123 67ZM411 70T467 109T555 225T586 410Q586 519 537 574T394
630Q278 630 211 543T144 291Q144 182 192 126T335 70Q411 70 467 109ZM281 753T281 765Q281 774 288 785L354 873Q370 895 402 895H427Q459 895 471 873L518 785Q523 778 523 768Q521 753 497 753H495Q476 753 463 766L408 840L339 766Q323 753 304 753H302Q281
753 281 765Z" />
<glyph unicode="&#xd5;" glyph-name="Otilde" horiz-adv-x="731" d="M193 -6T123 67T53 282Q53 396 87 491T199 646T402 706Q537 706 607 634T678 420Q678 283 635 188T514 43T327 -6Q193 -6 123 67ZM411 70T467 109T555 225T586 410Q586 519 537 574T394 630Q278
630 211 543T144 291Q144 182 192 126T335 70Q411 70 467 109ZM257 783Q251 790 251 800Q251 810 260 816Q317 857 367 857Q389 857 404 853T430 845T443 839Q473 826 487 826Q502 826 515 831T544 848Q555 855 562 855Q574 855 581 846L584 842Q591 834 591 826Q591
815 580 806Q527 762 474 762Q448 762 432 766T399 778Q395 780 381 786T355 793Q342 793 332 789T313 781T301 774Q289 768 280 768Q267 768 259 780L257 783Z" />
<glyph unicode="&#xd6;" glyph-name="Odieresis" horiz-adv-x="731" d="M193 -6T123 67T53 282Q53 396 87 491T199 646T402 706Q537 706 607 634T678 420Q678 283 635 188T514 43T327 -6Q193 -6 123 67ZM411 70T467 109T555 225T586 410Q586 519 537 574T394 630Q278
630 211 543T144 291Q144 182 192 126T335 70Q411 70 467 109ZM313 784T305 789T296 806L301 857Q304 879 347 879Q368 879 376 874T385 857L380 806Q377 784 334 784Q313 784 305 789ZM457 784T449 789T440 806L445 857Q447 879 491 879Q512 879 520 874T529 857L524
806Q521 784 478 784Q457 784 449 789Z" />
<glyph unicode="&#xd7;" glyph-name="multiply" horiz-adv-x="560" d="M524 407T516 399L327 228L480 56Q485 50 485 42Q485 36 477 28L455 8Q447 0 441 0Q435 0 427 8L276 181L85 8Q77 0 71 0Q65 0 57 8L41 28Q34 35 34 42Q34 48 44 56L233 228L80 399Q73 406
73 413Q73 419 83 427L104 447Q111 454 118 454Q125 454 132 447L285 275L474 447Q481 454 488 454Q495 454 502 447L519 427Q524 421 524 413Q524 407 516 399Z" />
<glyph unicode="&#xd8;" glyph-name="Oslash" horiz-adv-x="731" d="M703 676T696 669L631 605Q678 534 678 420Q678 283 635 188T514 43T327 -6Q178 -6 108 84L33 9Q25 1 19 1Q13 1 6 7T-1 21Q-1 27 7 35L88 116Q53 183 53 282Q53 396 87 491T199 646T402 706Q537
706 608 634L669 695Q676 702 683 702Q690 702 696 696T703 683Q703 676 696 669ZM144 230T159 187L542 568Q494 630 394 630Q278 630 211 543T144 291Q144 230 159 187ZM586 487T562 536L175 151Q221 70 335 70Q411 70 467 109T555 225T586 410Q586 487 562 536Z"
/>
<glyph unicode="&#xd9;" glyph-name="Ugrave" horiz-adv-x="712" d="M240 -6T184 20T97 94T66 201Q66 216 67 224L114 680Q116 702 157 702H165Q186 702 194 697T202 680L155 233Q154 226 154 212Q154 143 200 107T323 70Q376 70 420 89T492 143T524 221L572 680Q574
702 615 702H623Q644 702 652 697T660 680L612 224Q601 115 524 55T315 -6Q240 -6 184 20ZM396 762T382 766T361 780L326 819Q285 866 276 878T267 897Q268 904 279 906T315 909Q339 909 354 903T377 883Q412 822 423 800T435 771Q435 762 412 762Q396 762 382
766Z" />
<glyph unicode="&#xda;" glyph-name="Uacute" horiz-adv-x="712" d="M240 -6T184 20T97 94T66 201Q66 216 67 224L114 680Q116 702 157 702H165Q186 702 194 697T202 680L155 233Q154 226 154 212Q154 143 200 107T323 70Q376 70 420 89T492 143T524 221L572 680Q574
702 615 702H623Q644 702 652 697T660 680L612 224Q601 115 524 55T315 -6Q240 -6 184 20ZM348 762T348 771Q348 778 361 800T417 883Q427 897 442 903T482 909Q529 909 529 897Q529 891 519 880T464 821Q464 821 423 780Q414 771 400 767T370 762Q348 762 348
771Z" />
<glyph unicode="&#xdb;" glyph-name="Ucircumflex" horiz-adv-x="712" d="M240 -6T184 20T97 94T66 201Q66 216 67 224L114 680Q116 702 157 702H165Q186 702 194 697T202 680L155 233Q154 226 154 212Q154 143 200 107T323 70Q376 70 420 89T492 143T524 221L572
680Q574 702 615 702H623Q644 702 652 697T660 680L612 224Q601 115 524 55T315 -6Q240 -6 184 20ZM265 753T265 765Q265 774 272 785L338 873Q354 895 386 895H411Q443 895 455 873L502 785Q507 778 507 768Q505 753 481 753H479Q460 753 447 766L392 840L323
766Q307 753 288 753H286Q265 753 265 765Z" />
<glyph unicode="&#xdc;" glyph-name="Udieresis" horiz-adv-x="712" d="M240 -6T184 20T97 94T66 201Q66 216 67 224L114 680Q116 702 157 702H165Q186 702 194 697T202 680L155 233Q154 226 154 212Q154 143 200 107T323 70Q376 70 420 89T492 143T524 221L572
680Q574 702 615 702H623Q644 702 652 697T660 680L612 224Q601 115 524 55T315 -6Q240 -6 184 20ZM297 784T289 789T280 806L285 857Q288 879 331 879Q352 879 360 874T369 857L364 806Q361 784 318 784Q297 784 289 789ZM441 784T433 789T424 806L429 857Q431
879 475 879Q496 879 504 874T513 857L508 806Q505 784 462 784Q441 784 433 789Z" />
<glyph unicode="&#xdd;" glyph-name="Yacute" horiz-adv-x="559" d="M217 -2T209 3T200 20L235 359L59 667Q53 676 53 683Q53 693 63 697T100 702H111Q128 702 138 699T153 687L291 441L485 688Q495 702 531 702H540Q576 701 576 686Q576 681 566 667L323 356L288
20Q285 -2 246 -2H238Q217 -2 209 3ZM282 762T282 771Q282 778 295 800T351 883Q361 897 376 903T416 909Q463 909 463 897Q463 891 453 880T398 821Q398 821 357 780Q348 771 334 767T304 762Q282 762 282 771Z" />
<glyph unicode="&#xde;" glyph-name="Thorn" horiz-adv-x="567" d="M67 -2T59 3T50 20L119 680Q122 702 161 702H169Q190 702 198 697T207 680L196 578H341Q422 578 484 542T546 411Q546 315 505 263T410 194T309 176H154L138 20Q135 -2 96 -2H88Q67 -2 59 3ZM318
252Q344 252 375 264T430 309T454 399Q454 456 418 479T330 502H188L162 252H318Z" />
<glyph unicode="&#xdf;" glyph-name="germandbls" horiz-adv-x="554" d="M71 -2T63 3T54 20L107 521Q112 575 141 617T218 682T324 706Q406 706 455 672T505 561Q505 509 473 459T386 387V384Q441 371 470 330T499 230Q499 158 466 106T379 27T261 0H227Q217 0
214 7T210 27V31Q210 46 215 59T235 72H270Q308 72 340 90T391 143T411 225Q411 278 379 309T298 340H263Q253 340 250 347T246 367V373Q249 412 271 412H283Q317 412 347 430T396 478T415 545Q415 594 387 614T314 634Q263 634 230 604T191 521L138 20Q135 -2
96 -2H92Q71 -2 63 3Z" />
<glyph unicode="&#xe0;" glyph-name="agrave" d="M517 71T517 64Q517 49 513 27Q510 10 491 2T453 -6Q363 -6 363 92V102Q334 46 294 20T207 -6Q169 -6 131 13T67 81T40 210Q40 303 70 375T156 488T285 529Q355 529 412 475Q421 502 429 513T457 525H463Q477 525
482 520T488 504Q482 446 465 285T448 107Q448 80 457 73T484 66Q491 66 499 68T511 71Q517 71 517 64ZM391 385T397 417Q348 456 293 456Q202 456 165 389T127 216Q127 136 154 102T226 67Q266 67 307 106T376 236L389 367Q391 385 397 417ZM293 585T279 589T258
603L223 642Q182 689 173 701T164 720Q165 727 176 729T212 732Q236 732 251 726T274 706Q309 645 320 623T332 594Q332 585 309 585Q293 585 279 589Z" />
<glyph unicode="&#xe1;" glyph-name="aacute" d="M517 71T517 64Q517 49 513 27Q510 10 491 2T453 -6Q363 -6 363 92V102Q334 46 294 20T207 -6Q169 -6 131 13T67 81T40 210Q40 303 70 375T156 488T285 529Q355 529 412 475Q421 502 429 513T457 525H463Q477 525
482 520T488 504Q482 446 465 285T448 107Q448 80 457 73T484 66Q491 66 499 68T511 71Q517 71 517 64ZM391 385T397 417Q348 456 293 456Q202 456 165 389T127 216Q127 136 154 102T226 67Q266 67 307 106T376 236L389 367Q391 385 397 417ZM245 585T245 594Q245
601 258 623T314 706Q324 720 339 726T379 732Q426 732 426 720Q426 714 416 703T361 644Q361 644 320 603Q311 594 297 590T267 585Q245 585 245 594Z" />
<glyph unicode="&#xe2;" glyph-name="acircumflex" d="M517 71T517 64Q517 49 513 27Q510 10 491 2T453 -6Q363 -6 363 92V102Q334 46 294 20T207 -6Q169 -6 131 13T67 81T40 210Q40 303 70 375T156 488T285 529Q355 529 412 475Q421 502 429 513T457 525H463Q477
525 482 520T488 504Q482 446 465 285T448 107Q448 80 457 73T484 66Q491 66 499 68T511 71Q517 71 517 64ZM391 385T397 417Q348 456 293 456Q202 456 165 389T127 216Q127 136 154 102T226 67Q266 67 307 106T376 236L389 367Q391 385 397 417ZM162 576T162 588Q162
597 169 608L235 696Q251 718 283 718H308Q340 718 352 696L399 608Q404 601 404 591Q402 576 378 576H376Q357 576 344 589L289 663L220 589Q204 576 185 576H183Q162 576 162 588Z" />
<glyph unicode="&#xe3;" glyph-name="atilde" d="M517 71T517 64Q517 49 513 27Q510 10 491 2T453 -6Q363 -6 363 92V102Q334 46 294 20T207 -6Q169 -6 131 13T67 81T40 210Q40 303 70 375T156 488T285 529Q355 529 412 475Q421 502 429 513T457 525H463Q477 525
482 520T488 504Q482 446 465 285T448 107Q448 80 457 73T484 66Q491 66 499 68T511 71Q517 71 517 64ZM391 385T397 417Q348 456 293 456Q202 456 165 389T127 216Q127 136 154 102T226 67Q266 67 307 106T376 236L389 367Q391 385 397 417ZM138 606Q132 613 132
623Q132 633 141 639Q198 680 248 680Q270 680 285 676T311 668T324 662Q354 649 368 649Q383 649 396 654T425 671Q436 678 443 678Q455 678 462 669L465 665Q472 657 472 649Q472 638 461 629Q408 585 355 585Q329 585 313 589T280 601Q276 603 262 609T236 616Q223
616 213 612T194 604T182 597Q170 591 161 591Q148 591 140 603L138 606Z" />
<glyph unicode="&#xe4;" glyph-name="adieresis" d="M517 71T517 64Q517 49 513 27Q510 10 491 2T453 -6Q363 -6 363 92V102Q334 46 294 20T207 -6Q169 -6 131 13T67 81T40 210Q40 303 70 375T156 488T285 529Q355 529 412 475Q421 502 429 513T457 525H463Q477
525 482 520T488 504Q482 446 465 285T448 107Q448 80 457 73T484 66Q491 66 499 68T511 71Q517 71 517 64ZM391 385T397 417Q348 456 293 456Q202 456 165 389T127 216Q127 136 154 102T226 67Q266 67 307 106T376 236L389 367Q391 385 397 417ZM194 607T186 612T177
629L182 680Q185 702 228 702Q249 702 257 697T266 680L261 629Q258 607 215 607Q194 607 186 612ZM338 607T330 612T321 629L326 680Q328 702 372 702Q393 702 401 697T410 680L405 629Q402 607 359 607Q338 607 330 612Z" />
<glyph unicode="&#xe5;" glyph-name="aring" d="M517 71T517 64Q517 49 513 27Q510 10 491 2T453 -6Q363 -6 363 92V102Q334 46 294 20T207 -6Q169 -6 131 13T67 81T40 210Q40 303 70 375T156 488T285 529Q355 529 412 475Q421 502 429 513T457 525H463Q477 525
482 520T488 504Q482 446 465 285T448 107Q448 80 457 73T484 66Q491 66 499 68T511 71Q517 71 517 64ZM391 385T397 417Q348 456 293 456Q202 456 165 389T127 216Q127 136 154 102T226 67Q266 67 307 106T376 236L389 367Q391 385 397 417ZM242 564T221 585T199
640Q199 678 227 705T292 733Q325 733 346 711T368 657Q368 619 341 592T275 564Q242 564 221 585ZM301 599T317 615T333 654Q333 673 321 685T289 698Q267 698 251 682T234 644Q234 624 246 612T278 599Q301 599 317 615Z" />
<glyph unicode="&#xe6;" glyph-name="ae" horiz-adv-x="829" d="M418 226V210Q418 131 455 99T564 66Q606 66 637 77T698 105Q715 115 719 115Q723 115 724 113T726 103Q726 84 721 58Q717 36 687 22T620 1T557 -6Q431 -6 375 58Q340 30 288 12T185 -6Q114 -6
72 26T29 123Q29 222 114 257T339 296Q351 362 383 414Q362 457 285 457Q241 457 207 447T150 426T125 415Q115 415 105 434T95 464Q95 477 123 492T196 518T290 529Q341 529 379 516T440 478Q507 529 606 529Q665 529 702 509T757 458T774 396Q774 305 698 266T504
226H418ZM454 457T425 298H494Q553 298 620 315T687 388Q687 420 663 438T597 457Q454 457 425 298ZM270 67T343 117Q331 153 331 201V226Q120 226 120 132Q120 67 197 67Q270 67 343 117Z" />
<glyph unicode="&#xe7;" glyph-name="ccedilla" horiz-adv-x="485" d="M354 529T385 521T434 500T451 477Q451 466 438 447T412 427Q410 427 403 431T390 439Q354 457 301 457Q225 457 180 398T134 210Q134 135 166 101T270 66Q326 66 380 88Q402 97 404 97Q407
97 408 95T410 85Q410 62 407 47T394 23Q378 9 347 3T283 -5L265 -49H269Q296 -49 321 -62T347 -111Q347 -169 310 -189T222 -210Q190 -210 158 -201T125 -169Q125 -147 128 -142T137 -136Q139 -137 159 -149T215 -161Q275 -161 275 -121Q275 -107 266 -101T240
-89Q227 -84 221 -80T215 -69Q216 -66 222 -51T240 -5Q144 0 96 50T47 204Q47 346 111 437T311 529Q354 529 385 521Z" />
<glyph unicode="&#xe8;" glyph-name="egrave" horiz-adv-x="539" d="M170 213T133 220V210Q133 131 170 99T279 66Q321 66 352 77T413 105Q430 115 434 115Q438 115 439 113T441 103Q441 84 436 58Q432 36 402 22T335 1T272 -6Q46 -6 46 201Q46 346 114 437T321
529Q380 529 417 508T472 456T489 396Q489 300 412 257T219 213Q170 213 133 220ZM162 457T138 285H209Q272 285 337 304T402 388Q402 417 378 437T312 457Q162 457 138 285ZM320 585T306 589T285 603L250 642Q209 689 200 701T191 720Q192 727 203 729T239 732Q263
732 278 726T301 706Q336 645 347 623T359 594Q359 585 336 585Q320 585 306 589Z" />
<glyph unicode="&#xe9;" glyph-name="eacute" horiz-adv-x="539" d="M170 213T133 220V210Q133 131 170 99T279 66Q321 66 352 77T413 105Q430 115 434 115Q438 115 439 113T441 103Q441 84 436 58Q432 36 402 22T335 1T272 -6Q46 -6 46 201Q46 346 114 437T321
529Q380 529 417 508T472 456T489 396Q489 300 412 257T219 213Q170 213 133 220ZM162 457T138 285H209Q272 285 337 304T402 388Q402 417 378 437T312 457Q162 457 138 285ZM272 585T272 594Q272 601 285 623T341 706Q351 720 366 726T406 732Q453 732 453 720Q453
714 443 703T388 644Q388 644 347 603Q338 594 324 590T294 585Q272 585 272 594Z" />
<glyph unicode="&#xea;" glyph-name="ecircumflex" horiz-adv-x="539" d="M170 213T133 220V210Q133 131 170 99T279 66Q321 66 352 77T413 105Q430 115 434 115Q438 115 439 113T441 103Q441 84 436 58Q432 36 402 22T335 1T272 -6Q46 -6 46 201Q46 346 114 437T321
529Q380 529 417 508T472 456T489 396Q489 300 412 257T219 213Q170 213 133 220ZM162 457T138 285H209Q272 285 337 304T402 388Q402 417 378 437T312 457Q162 457 138 285ZM189 576T189 588Q189 597 196 608L262 696Q278 718 310 718H335Q367 718 379 696L426
608Q431 601 431 591Q429 576 405 576H403Q384 576 371 589L316 663L247 589Q231 576 212 576H210Q189 576 189 588Z" />
<glyph unicode="&#xeb;" glyph-name="edieresis" horiz-adv-x="539" d="M170 213T133 220V210Q133 131 170 99T279 66Q321 66 352 77T413 105Q430 115 434 115Q438 115 439 113T441 103Q441 84 436 58Q432 36 402 22T335 1T272 -6Q46 -6 46 201Q46 346 114 437T321
529Q380 529 417 508T472 456T489 396Q489 300 412 257T219 213Q170 213 133 220ZM162 457T138 285H209Q272 285 337 304T402 388Q402 417 378 437T312 457Q162 457 138 285ZM221 607T213 612T204 629L209 680Q212 702 255 702Q276 702 284 697T293 680L288 629Q285
607 242 607Q221 607 213 612ZM365 607T357 612T348 629L353 680Q355 702 399 702Q420 702 428 697T437 680L432 629Q429 607 386 607Q365 607 357 612Z" />
<glyph unicode="&#xec;" glyph-name="igrave" horiz-adv-x="265" d="M63 -6T63 89Q63 109 71 186Q75 237 87 350T104 503Q105 515 115 520T146 525H150Q171 525 179 520T188 503Q182 445 165 286T148 107Q148 80 157 73T183 66Q190 66 198 68T210 71Q216 71 216
64Q216 49 212 27Q209 10 190 2T152 -6Q63 -6 63 89ZM412 585T398 589T377 603L342 642Q301 689 292 701T283 720Q284 727 295 729T331 732Q355 732 370 726T393 706Q428 645 439 623T451 594Q451 585 428 585Q412 585 398 589Z" />
<glyph unicode="&#xed;" glyph-name="iacute" horiz-adv-x="265" d="M63 -6T63 89Q63 109 71 186Q75 237 87 350T104 503Q105 515 115 520T146 525H150Q171 525 179 520T188 503Q182 445 165 286T148 107Q148 80 157 73T183 66Q190 66 198 68T210 71Q216 71 216
64Q216 49 212 27Q209 10 190 2T152 -6Q63 -6 63 89ZM108 585T108 594Q108 601 121 623T177 706Q187 720 202 726T242 732Q289 732 289 720Q289 714 279 703T224 644Q224 644 183 603Q174 594 160 590T130 585Q108 585 108 594Z" />
<glyph unicode="&#xee;" glyph-name="icircumflex" horiz-adv-x="265" d="M63 -6T63 89Q63 109 71 186Q75 237 87 350T104 503Q105 515 115 520T146 525H150Q171 525 179 520T188 503Q182 445 165 286T148 107Q148 80 157 73T183 66Q190 66 198 68T210 71Q216
71 216 64Q216 49 212 27Q209 10 190 2T152 -6Q63 -6 63 89ZM281 576T281 588Q281 597 288 608L354 696Q370 718 402 718H427Q459 718 471 696L518 608Q523 601 523 591Q521 576 497 576H495Q476 576 463 589L408 663L339 589Q323 576 304 576H302Q281 576 281
588Z" />
<glyph unicode="&#xef;" glyph-name="idieresis" horiz-adv-x="265" d="M63 -6T63 89Q63 109 71 186Q75 237 87 350T104 503Q105 515 115 520T146 525H150Q171 525 179 520T188 503Q182 445 165 286T148 107Q148 80 157 73T183 66Q190 66 198 68T210 71Q216 71
216 64Q216 49 212 27Q209 10 190 2T152 -6Q63 -6 63 89ZM313 607T305 612T296 629L301 680Q304 702 347 702Q368 702 376 697T385 680L380 629Q377 607 334 607Q313 607 305 612ZM457 607T449 612T440 629L445 680Q447 702 491 702Q512 702 520 697T529 680L524
629Q521 607 478 607Q457 607 449 612Z" />
<glyph unicode="&#xf0;" glyph-name="eth" horiz-adv-x="569" d="M507 468T507 315Q507 160 439 77T249 -6Q148 -6 95 48T42 207Q42 308 74 380T165 491T305 529Q347 529 384 517Q367 563 347 607L260 595Q251 595 244 604T237 625Q237 637 254 640L327 650Q317
668 304 689Q300 694 300 699Q300 708 312 709Q336 713 349 713Q366 713 378 698L404 660L483 671Q494 671 499 661T504 641Q504 627 488 626L427 618Q507 468 507 315ZM334 66T377 126T420 310Q420 384 389 420T294 457Q214 457 171 396T128 211Q128 137 158 102T253
66Q334 66 377 126Z" />
<glyph unicode="&#xf1;" glyph-name="ntilde" horiz-adv-x="557" d="M511 71T511 64Q511 49 507 27Q504 10 485 2T447 -6Q357 -6 357 92L359 126L361 149Q365 197 374 270Q385 369 385 379Q385 456 309 456Q268 456 224 419T150 295L121 20Q118 -2 79 -2H75Q56
-2 46 4T37 19L72 351Q81 445 81 457Q81 475 81 481T80 491Q80 505 100 509T136 514Q162 514 162 447V428Q236 529 339 529Q408 529 439 494T471 399Q470 383 466 347T458 265Q442 123 442 107Q442 80 451 73T478 66Q485 66 493 68T505 71Q511 71 511 64ZM144 606Q138
613 138 623Q138 633 147 639Q204 680 254 680Q276 680 291 676T317 668T330 662Q360 649 374 649Q389 649 402 654T431 671Q442 678 449 678Q461 678 468 669L471 665Q478 657 478 649Q478 638 467 629Q414 585 361 585Q335 585 319 589T286 601Q282 603 268 609T242
616Q229 616 219 612T200 604T188 597Q176 591 167 591Q154 591 146 603L144 606Z" />
<glyph unicode="&#xf2;" glyph-name="ograve" horiz-adv-x="569" d="M150 -6T98 49T45 209Q45 296 73 368T160 485T309 529Q407 529 458 474T510 312Q510 159 442 77T252 -6Q150 -6 98 49ZM337 66T380 128T423 310Q423 385 393 421T298 457Q217 457 174 392T131
212Q131 138 162 102T257 66Q337 66 380 128ZM315 585T301 589T280 603L245 642Q204 689 195 701T186 720Q187 727 198 729T234 732Q258 732 273 726T296 706Q331 645 342 623T354 594Q354 585 331 585Q315 585 301 589Z" />
<glyph unicode="&#xf3;" glyph-name="oacute" horiz-adv-x="569" d="M150 -6T98 49T45 209Q45 296 73 368T160 485T309 529Q407 529 458 474T510 312Q510 159 442 77T252 -6Q150 -6 98 49ZM337 66T380 128T423 310Q423 385 393 421T298 457Q217 457 174 392T131
212Q131 138 162 102T257 66Q337 66 380 128ZM267 585T267 594Q267 601 280 623T336 706Q346 720 361 726T401 732Q448 732 448 720Q448 714 438 703T383 644Q383 644 342 603Q333 594 319 590T289 585Q267 585 267 594Z" />
<glyph unicode="&#xf4;" glyph-name="ocircumflex" horiz-adv-x="569" d="M150 -6T98 49T45 209Q45 296 73 368T160 485T309 529Q407 529 458 474T510 312Q510 159 442 77T252 -6Q150 -6 98 49ZM337 66T380 128T423 310Q423 385 393 421T298 457Q217 457 174 392T131
212Q131 138 162 102T257 66Q337 66 380 128ZM184 576T184 588Q184 597 191 608L257 696Q273 718 305 718H330Q362 718 374 696L421 608Q426 601 426 591Q424 576 400 576H398Q379 576 366 589L311 663L242 589Q226 576 207 576H205Q184 576 184 588Z" />
<glyph unicode="&#xf5;" glyph-name="otilde" horiz-adv-x="569" d="M150 -6T98 49T45 209Q45 296 73 368T160 485T309 529Q407 529 458 474T510 312Q510 159 442 77T252 -6Q150 -6 98 49ZM337 66T380 128T423 310Q423 385 393 421T298 457Q217 457 174 392T131
212Q131 138 162 102T257 66Q337 66 380 128ZM160 606Q154 613 154 623Q154 633 163 639Q220 680 270 680Q292 680 307 676T333 668T346 662Q376 649 390 649Q405 649 418 654T447 671Q458 678 465 678Q477 678 484 669L487 665Q494 657 494 649Q494 638 483 629Q430
585 377 585Q351 585 335 589T302 601Q298 603 284 609T258 616Q245 616 235 612T216 604T204 597Q192 591 183 591Q170 591 162 603L160 606Z" />
<glyph unicode="&#xf6;" glyph-name="odieresis" horiz-adv-x="569" d="M150 -6T98 49T45 209Q45 296 73 368T160 485T309 529Q407 529 458 474T510 312Q510 159 442 77T252 -6Q150 -6 98 49ZM337 66T380 128T423 310Q423 385 393 421T298 457Q217 457 174 392T131
212Q131 138 162 102T257 66Q337 66 380 128ZM216 607T208 612T199 629L204 680Q207 702 250 702Q271 702 279 697T288 680L283 629Q280 607 237 607Q216 607 208 612ZM360 607T352 612T343 629L348 680Q350 702 394 702Q415 702 423 697T432 680L427 629Q424 607
381 607Q360 607 352 612Z" />
<glyph unicode="&#xf7;" glyph-name="divide" horiz-adv-x="560" d="M271 368T263 373T254 390L260 441Q262 463 302 463H306Q327 463 335 458T344 441L338 390Q335 368 296 368H292Q271 368 263 373ZM61 197T54 204T47 220V227Q47 264 81 264H485Q498 264 505
257T512 241V234Q512 215 503 206T478 197H74Q61 197 54 204ZM232 -2T224 3T215 20L221 71Q223 93 263 93H267Q288 93 296 88T305 71L299 20Q296 -2 257 -2H253Q232 -2 224 3Z" />
<glyph unicode="&#xf8;" glyph-name="oslash" horiz-adv-x="569" d="M542 497T537 490L488 439Q515 389 515 312Q515 159 447 77T257 -6Q158 -6 107 45L69 6Q63 0 59 0Q54 0 48 6L43 11Q37 17 37 22Q37 28 42 33L82 75Q50 127 50 209Q50 296 78 368T165 485T314
529Q414 529 466 471L510 517Q515 523 520 523Q525 523 531 517L536 512Q542 506 542 501Q542 497 537 490ZM136 169T146 140L406 409Q376 457 303 457Q222 457 179 392T136 212Q136 169 146 140ZM428 344T422 371L165 105Q195 66 262 66Q342 66 385 128T428 310Q428
344 422 371Z" />
<glyph unicode="&#xf9;" glyph-name="ugrave" horiz-adv-x="557" d="M521 71T521 64Q521 49 517 27Q514 10 495 2T457 -6Q367 -6 367 92V102Q329 46 284 20T189 -6Q120 -6 89 28T58 127Q58 137 60 161L95 503Q96 515 106 520T137 525H141Q162 525 170 520T179
503L145 173Q143 153 143 144Q143 104 160 86T219 67Q261 67 305 106T379 237L407 503Q408 515 418 520T449 525H453Q474 525 482 520T491 503Q481 416 470 303Q452 121 452 107Q452 80 461 73T488 66Q495 66 503 68T515 71Q521 71 521 64ZM309 585T295 589T274
603L239 642Q198 689 189 701T180 720Q181 727 192 729T228 732Q252 732 267 726T290 706Q325 645 336 623T348 594Q348 585 325 585Q309 585 295 589Z" />
<glyph unicode="&#xfa;" glyph-name="uacute" horiz-adv-x="557" d="M521 71T521 64Q521 49 517 27Q514 10 495 2T457 -6Q367 -6 367 92V102Q329 46 284 20T189 -6Q120 -6 89 28T58 127Q58 137 60 161L95 503Q96 515 106 520T137 525H141Q162 525 170 520T179
503L145 173Q143 153 143 144Q143 104 160 86T219 67Q261 67 305 106T379 237L407 503Q408 515 418 520T449 525H453Q474 525 482 520T491 503Q481 416 470 303Q452 121 452 107Q452 80 461 73T488 66Q495 66 503 68T515 71Q521 71 521 64ZM261 585T261 594Q261
601 274 623T330 706Q340 720 355 726T395 732Q442 732 442 720Q442 714 432 703T377 644Q377 644 336 603Q327 594 313 590T283 585Q261 585 261 594Z" />
<glyph unicode="&#xfb;" glyph-name="ucircumflex" horiz-adv-x="557" d="M521 71T521 64Q521 49 517 27Q514 10 495 2T457 -6Q367 -6 367 92V102Q329 46 284 20T189 -6Q120 -6 89 28T58 127Q58 137 60 161L95 503Q96 515 106 520T137 525H141Q162 525 170 520T179
503L145 173Q143 153 143 144Q143 104 160 86T219 67Q261 67 305 106T379 237L407 503Q408 515 418 520T449 525H453Q474 525 482 520T491 503Q481 416 470 303Q452 121 452 107Q452 80 461 73T488 66Q495 66 503 68T515 71Q521 71 521 64ZM178 576T178 588Q178
597 185 608L251 696Q267 718 299 718H324Q356 718 368 696L415 608Q420 601 420 591Q418 576 394 576H392Q373 576 360 589L305 663L236 589Q220 576 201 576H199Q178 576 178 588Z" />
<glyph unicode="&#xfc;" glyph-name="udieresis" horiz-adv-x="557" d="M521 71T521 64Q521 49 517 27Q514 10 495 2T457 -6Q367 -6 367 92V102Q329 46 284 20T189 -6Q120 -6 89 28T58 127Q58 137 60 161L95 503Q96 515 106 520T137 525H141Q162 525 170 520T179
503L145 173Q143 153 143 144Q143 104 160 86T219 67Q261 67 305 106T379 237L407 503Q408 515 418 520T449 525H453Q474 525 482 520T491 503Q481 416 470 303Q452 121 452 107Q452 80 461 73T488 66Q495 66 503 68T515 71Q521 71 521 64ZM210 607T202 612T193
629L198 680Q201 702 244 702Q265 702 273 697T282 680L277 629Q274 607 231 607Q210 607 202 612ZM354 607T346 612T337 629L342 680Q344 702 388 702Q409 702 417 697T426 680L421 629Q418 607 375 607Q354 607 346 612Z" />
<glyph unicode="&#xfd;" glyph-name="yacute" horiz-adv-x="481" d="M485 525T485 509Q485 503 481 494L152 -187Q142 -208 103 -208H88Q57 -208 57 -193Q57 -188 64 -175L169 28L43 494Q41 502 41 508Q41 516 52 520T86 525H94Q128 525 132 509L209 227L230 148H232Q247
185 267 227L401 509Q409 525 444 525H447Q485 525 485 509ZM233 585T233 594Q233 601 246 623T302 706Q312 720 327 726T367 732Q414 732 414 720Q414 714 404 703T349 644Q349 644 308 603Q299 594 285 590T255 585Q233 585 233 594Z" />
<glyph unicode="&#xfe;" glyph-name="thorn" horiz-adv-x="571" d="M36 -208T36 -187L133 730Q134 740 145 746T175 752H179Q217 752 217 731L186 436Q216 484 255 506T341 529Q381 529 420 510T486 442T513 313Q513 220 484 148T402 35T277 -6Q234 -6 201 9T144
45L120 -186Q119 -196 108 -202T78 -208H74Q36 -208 36 -187ZM354 66T390 134T426 307Q426 456 322 456Q283 456 242 421T172 305L151 110Q201 66 265 66Q354 66 390 134Z" />
<glyph unicode="&#xff;" glyph-name="ydieresis" horiz-adv-x="481" d="M485 525T485 509Q485 503 481 494L152 -187Q142 -208 103 -208H88Q57 -208 57 -193Q57 -188 64 -175L169 28L43 494Q41 502 41 508Q41 516 52 520T86 525H94Q128 525 132 509L209 227L230
148H232Q247 185 267 227L401 509Q409 525 444 525H447Q485 525 485 509ZM182 607T174 612T165 629L170 680Q173 702 216 702Q237 702 245 697T254 680L249 629Q246 607 203 607Q182 607 174 612ZM326 607T318 612T309 629L314 680Q316 702 360 702Q381 702 389
697T398 680L393 629Q390 607 347 607Q326 607 318 612Z" />
<glyph unicode="&#x2013;" glyph-name="endash" horiz-adv-x="500" d="M7 230T4 237T0 257V259Q0 274 5 288T25 302H484Q501 302 501 277V275Q501 230 476 230H17Q7 230 4 237Z" />
<glyph unicode="&#x2014;" glyph-name="emdash" horiz-adv-x="1000" d="M7 230T4 237T0 257V259Q0 274 5 288T25 302H983Q1000 302 1000 277V275Q1000 230 975 230H17Q7 230 4 237Z" />
<glyph unicode="&#x2018;" glyph-name="quoteleft" horiz-adv-x="212" d="M71 531T71 559Q77 615 99 659T148 729T194 755Q205 755 213 752T222 741Q222 736 219 730T214 723Q189 685 177 649T160 563Q158 548 148 540T117 531H108Q71 531 71 559Z" />
<glyph unicode="&#x2019;" glyph-name="quoteright" horiz-adv-x="212" d="M87 530T79 533T70 544Q70 549 73 555T78 562Q103 600 115 636T132 722Q134 737 144 745T175 754H184Q221 754 221 726Q215 670 193 626T144 556T98 530Q87 530 79 533Z" />
<glyph unicode="&#x201a;" glyph-name="quotesinglbase" horiz-adv-x="198" d="M18 -117T10 -114T1 -103Q1 -98 4 -92T9 -85Q34 -47 46 -11T63 75Q65 90 75 98T106 107H115Q152 107 152 79Q146 23 124 -21T75 -91T29 -117Q18 -117 10 -114Z" />
<glyph unicode="&#x201c;" glyph-name="quotedblleft" horiz-adv-x="350" d="M210 531T210 559Q216 615 238 659T287 729T333 755Q344 755 352 752T361 741Q361 736 358 730T353 723Q328 685 316 649T299 563Q297 548 287 540T256 531H247Q210 531 210 559ZM326
531T326 559Q332 615 354 659T403 729T449 755Q460 755 468 752T477 741Q477 736 474 730T469 723Q444 685 432 649T415 563Q413 548 403 540T372 531H363Q326 531 326 559Z" />
<glyph unicode="&#x201d;" glyph-name="quotedblright" horiz-adv-x="350" d="M226 530T218 533T209 544Q209 549 212 555T217 562Q242 600 254 636T271 722Q273 737 283 745T314 754H323Q360 754 360 726Q354 670 332 626T283 556T237 530Q226 530 218 533ZM342
530T334 533T325 544Q325 549 328 555T333 562Q358 600 370 636T387 722Q389 737 399 745T430 754H439Q476 754 476 726Q470 670 448 626T399 556T353 530Q342 530 334 533Z" />
<glyph unicode="&#x201e;" glyph-name="quotedblbase" horiz-adv-x="336" d="M156 -115T148 -112T139 -101Q139 -96 142 -90T147 -83Q172 -45 184 -9T201 77Q203 92 213 100T244 109H253Q290 109 290 81Q284 25 262 -19T213 -89T167 -115Q156 -115 148 -112ZM16
-115T8 -112T-1 -101Q-1 -96 2 -90T7 -83Q32 -45 44 -9T61 77Q63 92 73 100T104 109H113Q150 109 150 81Q144 25 122 -19T73 -89T27 -115Q16 -115 8 -112Z" />
<glyph unicode="&#x2022;" glyph-name="bullet" horiz-adv-x="336" d="M104 201T72 233T40 313Q40 348 58 380T108 432T180 452Q229 452 261 420T293 340Q293 302 275 271T224 220T153 201Q104 201 72 233Z" />
<glyph unicode="&#x2039;" glyph-name="guilsinglleft" horiz-adv-x="300" d="M177 61T167 74L54 230Q44 244 44 255Q44 270 59 286L206 442Q218 454 229 454Q238 454 249 445T261 424Q261 418 251 402L125 258L220 113Q226 104 226 97Q226 88 214 75T188 61Q177
61 167 74Z" />
<glyph unicode="&#x203a;" glyph-name="guilsinglright" horiz-adv-x="300" d="M57 61T47 72T36 93Q36 99 46 113L173 258L77 402Q71 411 71 419Q71 432 84 443T109 454Q121 454 130 442L243 286Q254 271 254 258Q253 246 238 230L91 74Q78 61 68 61Q57 61 47 72Z" />
</font>
</defs>
</svg>
