<?xml version="1.0" standalone="no"?>
<!DOCTYPE svg PUBLIC "-//W3C//DTD SVG 1.1//EN" "http://www.w3.org/Graphics/SVG/1.1/DTD/svg11.dtd">
<svg xmlns="http://www.w3.org/2000/svg">
<defs >
<font id="Share" horiz-adv-x="426" ><font-face
    font-family="Share"
    units-per-em="1000"
    panose-1="2 0 8 6 4 0 0 2 0 4"
    ascent="885"
    descent="-242"
    alphabetic="0" />
<glyph unicode=" " glyph-name="space" horiz-adv-x="280" />
<glyph unicode="!" glyph-name="exclam" horiz-adv-x="270" d="M60 0V130H210V0H60ZM67 228V700H202V228H67Z" />
<glyph unicode="&quot;" glyph-name="quotedbl" horiz-adv-x="420" d="M155 433H70L40 590V700H185V590L155 433ZM350 433H265L235 590V700H380V590L350 433Z" />
<glyph unicode="#" glyph-name="numbersign" horiz-adv-x="496" d="M284 425H224L212 285H272L284 425ZM389 170L374 0H247L262 170H202L187 0H60L75 170H15L25 285H85L97 425H37L47 540H107L121 700H248L234 540H294L308 700H435L421 540H481L471 425H411L399
285H459L449 170H389Z" />
<glyph unicode="$" glyph-name="dollar" horiz-adv-x="470" d="M177 -110V-7Q146 -6 116 -3T63 7V126Q86 120 119 116T182 111Q236 111 257 132T279 198Q279 280 199 296Q127 311 90 356T52 482Q52 554 81 599T177 664V780H302V676Q325 674 351 671T396 662V544Q383
547 367 549T335 554T302 558T272 559Q235 559 213 547T191 493Q191 458 206 438T262 409Q298 402 327 388T376 351T407 293T418 208Q418 161 410 127T387 68T351 28T302 5V-110H177Z" />
<glyph unicode="%" glyph-name="percent" horiz-adv-x="916" d="M270 496Q270 534 268 558T261 596T246 615T222 620Q207 620 198 616T184 598T176 560T174 496Q174 459 176 435T183 397T197 378T222 372Q237 372 246 377T261 397T268 435T270 496ZM379 500Q379
453 373 414T349 345T301 300T222 283Q174 283 143 299T95 345T72 413T65 500Q65 547 71 585T95 651T143 694T222 709Q270 709 301 694T349 652T372 586T379 500ZM395 0H277L522 700H640L395 0ZM742 204Q742 242 740 266T733 304T718 323T694 328Q679 328 670 324T656
306T648 268T646 204Q646 167 648 143T655 105T669 86T694 80Q709 80 718 85T733 105T740 143T742 204ZM851 208Q851 161 845 122T821 53T773 8T694 -9Q646 -9 615 7T567 53T544 121T537 208Q537 255 543 293T567 359T615 402T694 417Q742 417 773 402T821 360T844
294T851 208Z" />
<glyph unicode="&amp;" glyph-name="ampersand" horiz-adv-x="515" d="M45 214Q45 291 61 335T125 399Q89 421 74 454T58 524Q58 580 70 615T105 671T162 700T240 708Q259 708 281 707T324 703T360 699T380 695V582Q376 583 362 585T331 589T297 593T268 595Q224
595 209 582T193 530Q193 483 208 466T272 449H500V336H427V9Q387 1 336 -4T230 -10Q180 -10 145 2T87 42T55 111T45 214ZM257 336Q235 336 221 331T197 310T185 270T181 204Q181 153 195 128T247 103Q264 103 277 105T300 110V336H257V336Z" />
<glyph unicode="&apos;" glyph-name="quotesingle" horiz-adv-x="225" d="M155 433H70L40 590V700H185V590L155 433Z" />
<glyph unicode="(" glyph-name="parenleft" horiz-adv-x="325" d="M40 350Q40 490 69 604T167 820H280Q249 767 229 714T196 604T180 485T175 350Q175 278 179 216T196 96T228 -14T280 -120H167Q99 -18 70 96T40 350Z" />
<glyph unicode=")" glyph-name="parenright" horiz-adv-x="325" d="M285 350Q285 210 256 96T158 -120H45Q76 -67 96 -14T129 96T145 215T150 350Q150 422 146 484T129 604T97 714T45 820H158Q226 718 255 604T285 350Z" />
<glyph unicode="*" glyph-name="asterisk" horiz-adv-x="525" d="M351 496Q374 468 401 435T448 378L342 304L262 441Q252 425 241 407T220 370T199 334T180 302L76 380L175 494Q141 502 106 508T40 520L82 642L212 585Q209 620 204 660T196 730H330L315 585Q347
597 382 612T447 639L485 518L351 496Z" />
<glyph unicode="+" glyph-name="plus" horiz-adv-x="560" d="M341 245V87H219V245H69V360H219V518H341V360H491V245H341Z" />
<glyph unicode="," glyph-name="comma" horiz-adv-x="250" d="M108 -150H10L50 0V130H200V0L108 -150Z" />
<glyph unicode="-" glyph-name="hyphen" horiz-adv-x="495" d="M75 245V360H420V245H75Z" />
<glyph unicode="." glyph-name="period" horiz-adv-x="250" d="M50 0V130H200V0H50Z" />
<glyph unicode="/" glyph-name="slash" horiz-adv-x="325" d="M216 810H345L109 -110H-20L216 810Z" />
<glyph unicode="0" glyph-name="zero" horiz-adv-x="470" d="M302 353Q302 431 301 479T292 553T272 589T235 598Q212 598 199 589T179 554T170 479T168 353Q168 273 170 224T178 148T198 112T235 102Q258 102 271 111T292 148T300 224T302 353ZM435 358Q435 266
428 197T400 83T339 14T235 -9Q171 -9 132 14T71 82T42 197T35 358Q35 446 41 512T69 621T129 687T235 709Q301 709 340 687T401 622T428 512T435 358Z" />
<glyph unicode="1" glyph-name="one" horiz-adv-x="470" d="M69 0V113H186V578L59 528V650L176 700H319V113H415V0H69Z" />
<glyph unicode="2" glyph-name="two" horiz-adv-x="470" d="M51 0V126L191 316Q217 349 232 373T254 419T263 461T265 509Q265 555 248 575T182 596Q156 596 124 590T69 578V692Q73 693 86 695T118 701T157 706T196 709Q256 709 295 696T356 656T388 590T397 500Q397
465 395 440T386 391T364 343T325 285L200 114H400V0H51Z" />
<glyph unicode="3" glyph-name="three" horiz-adv-x="470" d="M398 208Q398 145 383 103T342 37T279 2T201 -9Q183 -9 160 -7T116 -1T79 4T60 8V119Q69 117 83 114T115 109T150 104T185 102Q221 102 242 126T264 198Q264 257 247 283T183 309H106V418H173Q216
418 234 443T253 513Q253 556 237 577T183 598Q150 598 119 592T65 581V692Q69 693 83 695T115 701T155 706T196 709Q244 709 279 700T339 667T374 606T386 510Q386 488 382 466T369 424T346 391T311 369Q353 361 375 322T398 208Z" />
<glyph unicode="4" glyph-name="four" horiz-adv-x="470" d="M378 156V0H243V156H50V282L144 700H273L177 269H243L265 457H378V269H438V156H378Z" />
<glyph unicode="5" glyph-name="five" horiz-adv-x="470" d="M203 587V441H208Q262 441 299 430T359 394T392 327T403 223Q403 155 389 111T348 40T287 2T210 -9Q191 -9 170 -7T128 -3T89 3T60 8V120Q74 117 110 110T189 103Q231 103 250 131T269 213Q269 253
264 277T247 314T221 331T186 335H70V700H383V587H203Z" />
<glyph unicode="6" glyph-name="six" horiz-adv-x="470" d="M435 215Q435 151 419 108T375 39T310 2T232 -9Q185 -9 149 7T89 64T52 175T39 355Q39 460 54 528T100 637T177 693T286 709Q298 709 313 708T343 705T371 701T391 697V585Q371 590 344 594T282 599Q254
599 235 591T202 564T183 513T174 433Q194 444 216 451T265 459Q315 459 348 445T400 400T427 324T435 215ZM241 351Q221 351 204 346T172 334Q172 255 176 209T188 139T209 108T239 101Q256 101 268 106T287 126T298 165T302 226Q302 292 288 321T241 351Z" />
<glyph unicode="7" glyph-name="seven" horiz-adv-x="470" d="M233 0H94L258 583H45V700H390V563L233 0Z" />
<glyph unicode="8" glyph-name="eight" horiz-adv-x="470" d="M310 199Q310 229 307 250T293 286T261 307T201 314Q189 306 181 298T169 277T162 246T160 199Q160 143 176 122T235 100Q277 100 293 121T310 199ZM298 515Q298 564 286 583T237 602Q205 602 189
583T172 515Q172 491 174 473T186 443T214 424T264 417Q285 430 291 454T298 515ZM443 209Q443 104 396 48T235 -9Q122 -9 75 47T27 209Q27 243 34 268T54 311T83 340T116 358Q99 366 85 382T62 418T47 462T41 506Q41 565 54 604T93 666T154 699T235 709Q280 709
315 700T376 667T415 604T429 506Q429 490 425 471T411 434T387 400T351 374Q375 368 392 352T421 314T438 264T443 209Z" />
<glyph unicode="9" glyph-name="nine" horiz-adv-x="470" d="M28 485Q28 551 44 594T88 662T153 698T231 709Q278 709 314 695T374 643T411 536T424 358Q424 240 409 168T365 57T291 4T189 -9Q177 -9 162 -8T131 -5T103 -1T82 3V115Q102 110 130 106T193 101Q218
101 235 107T264 131T281 181T289 267Q269 255 247 248T198 241Q148 241 115 258T63 306T36 383T28 485ZM222 349Q242 349 259 353T291 366Q291 450 287 497T274 566T254 594T224 599Q208 599 197 594T177 574T165 535T161 474Q161 408 175 379T222 349Z" />
<glyph unicode=":" glyph-name="colon" horiz-adv-x="250" d="M50 0V130H200V0H50ZM50 370V500H200V370H50Z" />
<glyph unicode=";" glyph-name="semicolon" horiz-adv-x="250" d="M108 -150H10L50 0V130H200V0L108 -150ZM50 370V500H200V370H50Z" />
<glyph unicode="&lt;" glyph-name="less" horiz-adv-x="550" d="M75 251V414L475 583V452L176 336L475 219V86L75 251Z" />
<glyph unicode="=" glyph-name="equal" horiz-adv-x="550" d="M75 145V260H475V145H75ZM75 345V460H475V345H75Z" />
<glyph unicode="&gt;" glyph-name="greater" horiz-adv-x="550" d="M75 86V219L374 336L75 452V583L475 414V251L75 86Z" />
<glyph unicode="?" glyph-name="question" horiz-adv-x="380" d="M82 0V130H232V0H82ZM350 528Q350 504 348 486T339 451T323 420T297 386L224 298V228H89V337L169 435Q181 450 190 461T204 483T212 503T215 526Q215 545 213 558T202 579T178 591T135 595Q115
595 85 591T30 580V693Q40 695 56 698T90 703T126 707T157 709Q205 709 241 702T302 675T338 620T350 528Z" />
<glyph unicode="@" glyph-name="at" horiz-adv-x="843" d="M462 441Q456 443 443 444T415 446Q369 446 369 345Q369 288 378 267T414 245Q431 245 441 251T455 267T461 289T462 312V441ZM768 401Q768 344 763 293T740 202T691 139T605 116Q570 116 539 135T494
201Q488 192 480 182T458 163T427 150T383 144Q355 144 331 151T288 178T260 236T249 335Q249 404 264 445T306 508T369 537T448 544Q459 544 476 543T512 540T548 536T577 530V241Q577 226 584 219T603 211Q615 211 622 215T632 238T636 295T637 401Q637 469 631
508T603 567T539 592T423 598Q355 598 313 588T247 551T215 474T206 345Q206 267 214 219T244 145T306 111T409 102Q446 102 483 104T541 109V-1Q528 -3 511 -4T476 -6T441 -8T409 -9Q310 -9 246 7T143 64T90 173T75 345Q75 451 94 521T154 633T262 692T423 709Q517
709 582 697T689 651T749 557T768 401Z" />
<glyph unicode="A" glyph-name="A" horiz-adv-x="545" d="M273 612L213 281H335L273 612ZM389 0L357 163H190L158 0H15L175 700H377L530 0H389Z" />
<glyph unicode="B" glyph-name="B" horiz-adv-x="547" d="M353 214Q353 243 346 261T327 291T300 307T267 312H207V114Q218 114 229 113Q239 112 252 112T279 111Q321 111 337 138T353 214ZM338 510Q338 548 321 569T274 590Q262 590 250 590T228 588Q217 587
207 586V424H260Q302 424 320 444T338 510ZM492 215Q492 145 475 102T428 34T357 0T268 -9Q236 -9 202 -8T138 -5Q104 -3 70 0V700Q103 703 136 705Q164 707 195 708T252 709Q313 709 355 698T423 664T461 605T473 519Q473 483 465 458T445 417T416 391T384 377Q404
375 423 365T458 335T482 286T492 215Z" />
<glyph unicode="C" glyph-name="C" horiz-adv-x="433" d="M393 8Q385 6 370 4T337 -1T302 -5T272 -7Q215 -7 173 8T104 63T63 175T50 361Q50 475 65 543T110 648T184 695T285 707Q295 707 311 706T343 702T373 698T393 693V572Q368 578 334 582T272 587Q250 587
235 580T209 548T194 478T189 354Q189 276 193 229T207 156T233 122T272 113Q303 113 338 118T393 128V8Z" />
<glyph unicode="D" glyph-name="D" horiz-adv-x="546" d="M357 354Q357 435 352 481T336 552T309 582T269 589Q255 589 244 589T224 587Q214 586 207 585V115Q213 114 222 113Q230 112 241 112T268 111Q291 111 308 122T336 160T352 235T357 354ZM496 361Q496
249 481 177T436 64T362 6T259 -10Q233 -10 200 -9T138 -5Q105 -2 70 0V700Q105 702 138 705Q166 707 196 708T247 710Q307 710 353 697T431 646T479 540T496 361Z" />
<glyph unicode="E" glyph-name="E" horiz-adv-x="478" d="M70 0V700H428V592H207V415H403V308H207V108H428V0H70Z" />
<glyph unicode="F" glyph-name="F" horiz-adv-x="483" d="M222 592V405H418V297H222V0H85V700H443V592H222Z" />
<glyph unicode="G" glyph-name="G" horiz-adv-x="510" d="M455 9Q415 1 370 -4T283 -9Q220 -9 176 7T103 64T63 177T50 361Q50 472 67 540T116 645T197 696T307 709Q332 709 367 704T434 692V574Q402 580 366 584T297 589Q266 589 245 580T212 546T194 474T189
354Q189 279 193 232T208 157T236 121T280 111Q291 111 301 111T322 112V270H258V388H455V9Z" />
<glyph unicode="H" glyph-name="H" horiz-adv-x="570" d="M363 0V297H207V0H70V700H207V411H363V700H500V0H363Z" />
<glyph unicode="I" glyph-name="I" horiz-adv-x="347" d="M35 0V106H105V594H35V700H312V594H242V106H312V0H35Z" />
<glyph unicode="J" glyph-name="J" horiz-adv-x="416" d="M351 261Q351 183 342 131T310 48T249 3T152 -10Q140 -10 124 -9T91 -6T58 -2T30 4V123Q51 119 81 116T136 113Q160 113 175 120T198 144T210 188T214 254V582H72V700H351V261V261Z" />
<glyph unicode="K" glyph-name="K" horiz-adv-x="547" d="M369 0L227 275L207 244V0H70V700H207V458L368 700H522L313 396L527 0H369Z" />
<glyph unicode="L" glyph-name="L" horiz-adv-x="420" d="M70 0V700H207V116H410V0H70Z" />
<glyph unicode="M" glyph-name="M" horiz-adv-x="666" d="M472 0V599L386 235H282L192 599V0H70V700H278L337 431L397 700H596V0H472Z" />
<glyph unicode="N" glyph-name="N" horiz-adv-x="592" d="M323 0L191 562V0H70V700H269L403 127V700H522V0H323Z" />
<glyph unicode="O" glyph-name="O" horiz-adv-x="568" d="M379 353Q379 430 374 478T358 554T329 592T284 602Q257 602 239 592T210 555T194 479T189 353Q189 277 194 228T210 150T239 110T284 98Q311 98 329 109T358 150T374 228T379 353ZM518 358Q518 266 510
197T476 82T404 13T284 -10Q210 -10 164 13T93 82T59 197T50 358Q50 446 59 512T95 622T166 688T284 710Q356 710 401 688T473 622T508 512T518 358Z" />
<glyph unicode="P" glyph-name="P" horiz-adv-x="520" d="M346 470Q346 529 331 559T272 590Q240 590 223 587Q213 585 207 584V359H270Q305 359 325 389T346 470ZM485 477Q485 411 471 366T429 293T360 253T264 241H207V0H70V700Q99 702 131 705Q158 707 190
708T254 710Q322 710 366 695T437 650T474 577T485 477Z" />
<glyph unicode="Q" glyph-name="Q" horiz-adv-x="568" d="M248 -8Q185 -3 147 22T87 94T58 206T50 358Q50 446 59 512T95 622T166 688T284 710Q356 710 401 688T473 622T508 512T518 358Q518 229 498 146T419 23L518 0V-124L248 -8ZM379 353Q379 430 374 478T358
554T329 592T284 602Q257 602 239 592T210 555T194 479T189 353Q189 277 194 228T210 150T239 110T284 98Q311 98 329 109T358 150T374 228T379 353Z" />
<glyph unicode="R" glyph-name="R" horiz-adv-x="533" d="M478 488Q478 405 453 358T383 287L508 0H353L247 264H207V0H70V700Q99 702 131 705Q158 707 190 708T254 710Q319 710 362 697T431 655T467 586T478 488ZM339 481Q339 540 325 565T268 590Q244 590 226
587Q215 585 207 584V382H270Q301 382 320 407T339 481Z" />
<glyph unicode="S" glyph-name="S" horiz-adv-x="424" d="M404 208Q404 138 387 96T339 30T266 0T173 -7Q157 -7 138 -6T99 -3T62 2T31 8V127Q43 124 59 121T94 116T130 113T163 111Q210 111 237 130T265 198Q265 225 260 244T243 275T216 294T180 305Q96 322
61 370T25 506Q25 562 40 600T86 662T161 696T263 707Q277 707 294 706T328 703T360 698T387 692V574Q374 577 357 579T321 584T284 588T253 589Q210 589 187 572T164 517Q164 493 167 478T180 453T204 437T243 426Q279 419 308 405T359 365T392 302T404 208Z"
/>
<glyph unicode="T" glyph-name="T" horiz-adv-x="445" d="M291 579V0H154V579H10V700H435V579H291Z" />
<glyph unicode="U" glyph-name="U" horiz-adv-x="555" d="M490 215Q490 153 476 111T435 42T369 5T278 -7Q227 -7 188 4T121 42T80 110T65 215V700H202V196Q202 111 278 111Q317 111 335 132T353 196V700H490V215Z" />
<glyph unicode="V" glyph-name="V" horiz-adv-x="542" d="M376 0H165L25 700H169L274 98L383 700H517L376 0Z" />
<glyph unicode="W" glyph-name="W" horiz-adv-x="628" d="M549 0H356L314 235L264 0H79L45 700H167L194 107L265 405H379L442 107L470 700H583L549 0Z" />
<glyph unicode="X" glyph-name="X" horiz-adv-x="525" d="M355 0L263 232L164 0H15L195 363L35 700H187L269 493L354 700H503L336 364L510 0H355Z" />
<glyph unicode="Y" glyph-name="Y" horiz-adv-x="531" d="M334 308V0H194V308L10 700H158L269 430L380 700H521L334 308Z" />
<glyph unicode="Z" glyph-name="Z" horiz-adv-x="466" d="M182 119H421V0H35V133L285 581H58V700H431V567L182 119Z" />
<glyph unicode="[" glyph-name="bracketleft" horiz-adv-x="330" d="M70 -120V820H290V705H200V0H290V-120H70Z" />
<glyph unicode="\" glyph-name="backslash" horiz-adv-x="325" d="M-20 810H109L345 -110H216L-20 810Z" />
<glyph unicode="]" glyph-name="bracketright" horiz-adv-x="330" d="M40 -120V0H130V705H40V820H260V-120H40Z" />
<glyph unicode="^" glyph-name="asciicircum" horiz-adv-x="497" d="M316 420L251 660L168 420H30L164 760H338L467 420H316Z" />
<glyph unicode="_" glyph-name="underscore" horiz-adv-x="510" d="M3 -170V-50H507V-170H3Z" />
<glyph unicode="`" glyph-name="grave" horiz-adv-x="313" d="M177 580L25 715H184L288 580H177Z" />
<glyph unicode="a" glyph-name="a" horiz-adv-x="509" d="M416 0Q396 0 370 8T330 41Q311 18 280 5T198 -9Q165 -9 137 -1T89 25T57 74T45 151Q45 242 99 280T257 318H302V339Q302 368 288 383T235 399Q192 399 156 393T81 375V489Q95 493 114 496T153 503T195
507T235 509Q299 509 338 499T398 466T427 410T435 330V132Q435 117 443 109T474 100V0H416ZM236 103Q257 103 269 110T289 129T299 152T302 175V220H252Q220 220 200 206T180 158Q180 135 192 119T236 103Z" />
<glyph unicode="b" glyph-name="b" horiz-adv-x="517" d="M467 282Q467 200 455 144T415 54T342 6T230 -9Q176 -9 135 -4T65 5V700H198V474Q219 490 245 499T304 509Q345 509 376 498T427 460T457 391T467 282ZM269 395Q236 395 217 371T198 320V107Q209 106 219
106T239 105Q267 105 285 111T313 136T328 187T332 272Q332 310 329 334T319 371T299 390T269 395Z" />
<glyph unicode="c" glyph-name="c" horiz-adv-x="407" d="M367 6Q343 -1 311 -5T252 -9Q203 -9 166 1T103 40T64 121T50 260Q50 394 102 451T253 509Q278 509 311 505T367 495V378Q353 381 342 383T318 388T292 391T259 392Q242 392 229 386T206 364T192 318T187
240Q187 165 204 137T257 108Q295 108 320 113T367 122V6Z" />
<glyph unicode="d" glyph-name="d" horiz-adv-x="524" d="M50 237Q50 314 64 366T107 450T181 495T290 509Q300 509 309 509T326 508V700H459V0H351L341 41Q317 18 286 5T216 -9Q174 -9 143 2T91 42T60 117T50 237ZM251 105Q268 105 281 111T305 129T320 153T326
180V392Q315 393 304 394T281 395Q255 395 237 389T207 364T190 313T185 228Q185 190 188 166T200 129T220 110T251 105Z" />
<glyph unicode="e" glyph-name="e" horiz-adv-x="489" d="M185 201Q188 146 205 126T268 105Q310 105 347 110T407 120V8Q395 5 377 2T339 -4T301 -7T268 -9Q214 -9 173 0T105 37T64 115T50 250Q50 319 63 368T103 449T168 494T255 509Q312 509 348 494T406 451T435
380T444 285V201H185ZM253 399Q222 399 207 377T186 299H316V325Q316 362 301 380T253 399Z" />
<glyph unicode="f" glyph-name="f" horiz-adv-x="341" d="M223 387V0H90V387H25V500H90V540Q90 591 99 624T128 676T175 702T241 709Q273 709 304 705T351 697V584Q335 588 314 591T266 595Q241 595 232 583T223 549V500H332V387H223Z" />
<glyph unicode="g" glyph-name="g" horiz-adv-x="548" d="M478 326Q478 236 422 196T252 155Q220 155 193 158Q187 146 187 129Q187 123 189 113Q221 116 254 117T307 119Q352 119 387 111T446 85T483 35T496 -42Q496 -92 477 -121T426 -167T353 -187T265 -192Q246
-192 219 -191T163 -187T110 -181T71 -175V-67Q90 -70 114 -73T166 -79T220 -82T271 -84Q322 -84 340 -73T359 -39Q359 -20 348 -7T298 6Q284 6 260 5T209 3T157 -1T117 -5Q102 9 86 38T70 108Q70 160 96 195Q70 217 58 250T45 334Q45 392 65 426T118 479T192 503T277
509Q327 509 364 497L528 504V402L464 406Q478 370 478 326ZM345 334Q345 372 328 386T267 401Q213 401 196 384T178 326Q178 261 252 261Q274 261 291 263T321 274T339 296T345 334Z" />
<glyph unicode="h" glyph-name="h" horiz-adv-x="524" d="M65 0V700H198V475Q219 491 245 500T302 509Q354 509 385 497T434 460T458 398T464 310V0H331V313Q331 363 317 378T275 394Q237 394 219 372T198 324V0H65Z" />
<glyph unicode="i" glyph-name="i" horiz-adv-x="263" d="M60 585V700H203V585H60ZM65 0V500H198V0H65Z" />
<glyph unicode="j" glyph-name="j" horiz-adv-x="263" d="M198 -13Q198 -61 189 -92T161 -142T112 -169T40 -177Q16 -177 -4 -176T-45 -172V-60Q-32 -62 -13 -62T18 -63Q45 -63 55 -54T65 -18V500H198V-13ZM60 585V700H203V585H60Z" />
<glyph unicode="k" glyph-name="k" horiz-adv-x="495" d="M327 0L219 207L198 180V0H65V700H198V350L318 500H470L301 300L480 0H327Z" />
<glyph unicode="l" glyph-name="l" horiz-adv-x="290" d="M265 3Q254 1 229 -2T174 -5Q112 -5 89 32T65 148V700H198V153Q198 129 204 120T229 110Q240 110 250 111T265 114V3Z" />
<glyph unicode="m" glyph-name="m" horiz-adv-x="750" d="M65 0V500H173L181 463Q203 484 231 496T292 509Q340 509 369 496T415 458Q438 481 469 495T538 509Q588 509 618 497T664 459T685 397T690 310V0H557V313Q557 363 546 378T511 394Q476 394 461 372T444
324V0H311V313Q311 363 300 378T265 394Q229 394 214 370T198 319V0H65Z" />
<glyph unicode="n" glyph-name="n" horiz-adv-x="524" d="M65 0V500H173L182 461Q205 483 235 496T302 509Q354 509 385 497T434 460T458 398T464 310V0H331V313Q331 363 317 378T275 394Q237 394 219 372T198 324V0H65Z" />
<glyph unicode="o" glyph-name="o" horiz-adv-x="530" d="M480 260Q480 181 466 130T425 48T358 5T264 -7Q211 -7 171 5T104 47T64 129T50 260Q50 388 100 447T264 507Q377 507 428 448T480 260ZM344 245Q344 289 340 318T327 366T302 391T264 399Q242 399 227
392T203 366T190 319T186 245Q186 203 189 176T202 132T226 108T264 101Q287 101 302 108T327 131T340 175T344 245Z" />
<glyph unicode="p" glyph-name="p" horiz-adv-x="519" d="M65 -170V500H173L183 459Q206 482 236 495T306 509Q347 509 378 498T429 460T459 391T469 282Q469 200 457 144T417 54T344 6T234 -9Q225 -9 216 -9T198 -8V-170H65ZM271 395Q238 395 218 371T198 320V107Q209
106 220 106T241 105Q269 105 287 111T315 136T330 187T334 272Q334 310 331 334T321 371T301 390T271 395Z" />
<glyph unicode="q" glyph-name="q" horiz-adv-x="524" d="M50 237Q50 314 63 366T105 450T178 495T286 509Q313 509 334 508T375 506T415 502T459 495V-170H326V30Q303 12 276 2T213 -9Q171 -9 141 2T90 42T60 117T50 237ZM248 105Q264 105 278 111T302 128T319
151T326 177V392Q313 393 301 394T277 395Q251 395 233 389T205 364T190 313T185 228Q185 190 188 166T198 129T218 110T248 105Z" />
<glyph unicode="r" glyph-name="r" horiz-adv-x="353" d="M65 0V500H173L183 455Q203 479 229 494T287 509Q310 509 333 504V372Q320 375 309 376T283 378Q258 378 242 366T216 333T202 286T198 233V0H65Z" />
<glyph unicode="s" glyph-name="s" horiz-adv-x="425" d="M385 151Q385 105 371 75T330 26T266 -1T184 -9Q165 -9 145 -8T107 -4T73 1T47 7V121Q67 116 99 110T166 103Q201 103 224 111T248 145Q248 168 236 180T185 199Q108 213 77 251T45 353Q45 437 96 473T253
509Q268 509 285 507T318 503T347 497T368 492V378Q345 385 318 391T249 397Q212 397 196 388T180 356Q180 338 196 329T245 314Q323 301 354 261T385 151Z" />
<glyph unicode="t" glyph-name="t" horiz-adv-x="348" d="M218 385V150Q218 126 227 116T260 105Q276 105 294 108T323 114V3Q318 2 306 0T279 -4T248 -7T218 -9Q176 -9 150 4T110 40T90 92T85 155V385H20V500H85V620H218V500H318V385H218Z" />
<glyph unicode="u" glyph-name="u" horiz-adv-x="518" d="M193 500V182Q193 157 197 142T208 119T225 109T249 106Q287 106 303 130T320 181V500H453V0H345L336 39Q313 17 284 4T217 -9Q170 -9 140 3T92 39T67 100T60 186V500H193Z" />
<glyph unicode="v" glyph-name="v" horiz-adv-x="492" d="M343 -1H150L20 499H159L248 95L338 499H472L343 -1Z" />
<glyph unicode="w" glyph-name="w" horiz-adv-x="642" d="M550 0H375L321 246L262 0H92L15 500H148L195 118L268 410H386L454 118L502 500H627L550 0Z" />
<glyph unicode="x" glyph-name="x" horiz-adv-x="505" d="M326 0L251 151L172 0H25L174 260L41 500H194L255 381L316 500H462L326 272L480 0H326Z" />
<glyph unicode="y" glyph-name="y" horiz-adv-x="493" d="M345 -42Q313 -177 203 -177Q195 -177 182 -177T155 -176T130 -174T113 -172V-59Q137 -62 162 -62Q203 -62 211 -18L214 0H180L20 500H162L259 111L344 500H473L345 -42Z" />
<glyph unicode="z" glyph-name="z" horiz-adv-x="418" d="M182 107H378V0H30V111L237 393H50V500H388V380L182 107Z" />
<glyph unicode="{" glyph-name="braceleft" horiz-adv-x="345" d="M139 350Q156 347 173 338T203 313T225 273T234 216V20Q234 -17 272 -17Q280 -17 287 -16T300 -14V-122Q292 -124 274 -125T245 -127Q215 -127 190 -118T146 -91T117 -42T106 30V196Q106 219 100
235T82 261T58 275T30 280V420Q58 420 82 439T106 504V670Q106 712 116 742T146 790T190 818T245 827Q255 827 273 826T300 822V714Q295 715 288 716T272 717Q234 717 234 680V484Q234 451 226 427T204 387T173 362T139 350Z" />
<glyph unicode="|" glyph-name="bar" horiz-adv-x="310" d="M90 -110V810H220V-110H90Z" />
<glyph unicode="}" glyph-name="braceright" horiz-adv-x="345" d="M206 350Q189 353 172 362T142 387T120 427T111 484V680Q111 717 73 717Q65 717 58 716T45 714V822Q53 824 71 825T100 827Q130 827 155 818T199 791T228 742T239 670V504Q239 458 263 439T315
420V280Q301 280 288 276T263 261T246 235T239 196V30Q239 -12 229 -42T199 -90T155 -118T100 -127Q90 -127 72 -126T45 -122V-14Q50 -15 57 -16T73 -17Q111 -17 111 20V216Q111 249 119 273T141 313T172 338T206 350Z" />
<glyph unicode="~" glyph-name="asciitilde" horiz-adv-x="510" d="M75 354Q110 375 133 382T179 389Q199 389 219 383T260 370T301 356T340 350Q366 350 390 360T435 384V266Q412 251 386 241T331 231Q310 231 291 237T252 251T213 265T172 272Q146 272 121 261T75
236V354Z" />
<glyph unicode="&#xa0;" glyph-name="uni00A0" horiz-adv-x="280" />
<glyph unicode="&#xa1;" glyph-name="exclamdown" horiz-adv-x="270" d="M210 500V370H60V500H210ZM203 272V-200H68V272H203Z" />
<glyph unicode="&#xa2;" glyph-name="cent" horiz-adv-x="470" d="M217 -110V-6Q182 -1 156 14T111 59T84 138T74 259Q74 371 110 429T217 502V600H342V503Q356 501 368 499T391 494V377Q377 380 366 382T342 387T316 390T283 391Q266 391 253 385T230 363T216
317T211 239Q211 164 228 136T281 107Q319 107 344 112T391 121V5Q380 2 368 0T342 -5V-110H217Z" />
<glyph unicode="&#xa3;" glyph-name="sterling" horiz-adv-x="470" d="M253 423H356V310H253V113H426V0H51V113H116V310H51V423H116V449Q116 527 125 577T156 656T214 696T305 707Q314 707 327 707T357 705T388 702T416 698V583Q395 587 372 589T337 592Q308 592
292 588T267 569T256 528T253 456V423Z" />
<glyph unicode="&#xa4;" glyph-name="currency" horiz-adv-x="570" d="M85 185Q74 210 70 239T65 300Q65 365 86 414L13 487L98 572L164 506Q215 537 285 537Q353 537 406 506L472 572L557 487L489 419Q515 367 515 300Q515 234 489 180L557 113L472 28L407 92Q357
63 285 63Q212 63 162 92L98 28L13 113L85 185ZM383 300Q383 356 359 393T285 430Q235 430 211 393T187 300Q187 244 211 207T285 170Q310 170 328 180T359 207T377 248T383 300Z" />
<glyph unicode="&#xa5;" glyph-name="yen" horiz-adv-x="470" d="M303 265V220H409V115H303V0H163V115H59V220H163V265H59V370H151L10 700H153L238 477L322 700H460L315 370H409V265H303Z" />
<glyph unicode="&#xa6;" glyph-name="brokenbar" horiz-adv-x="310" d="M90 -110V250H220V-110H90ZM90 450V810H220V450H90Z" />
<glyph unicode="&#xa7;" glyph-name="section" horiz-adv-x="470" d="M58 345Q58 380 75 407T117 452Q72 493 72 553Q72 637 122 673T279 709Q294 709 310 707T342 703T371 697T391 692V578Q368 585 342 591T275 597Q238 597 223 588T207 556Q207 542 221 532T268
514Q307 505 333 493T376 463T400 419T408 355Q408 319 391 294T348 252Q371 231 382 204T394 147Q394 63 344 27T187 -9Q172 -9 156 -7T124 -3T96 3T75 8V122Q98 115 124 109T191 103Q228 103 243 112T259 144Q259 158 245 168T198 186Q159 195 133 207T90 238T66
283T58 345ZM275 345Q275 374 264 386T226 405Q210 398 201 386T191 355Q191 326 202 314T240 294Q255 302 265 314T275 345Z" />
<glyph unicode="&#xa8;" glyph-name="dieresis" horiz-adv-x="380" d="M225 560V675H355V560H225ZM25 560V675H155V560H25Z" />
<glyph unicode="&#xa9;" glyph-name="copyright" horiz-adv-x="810" d="M489 162Q485 161 475 160T454 157T431 155T413 154Q381 154 359 162T322 193T301 255T294 356Q294 417 301 454T323 511T362 539T419 546Q425 546 435 545T455 543T475 541T489 538V465Q475
468 461 469T436 471Q420 471 410 469T393 455T385 420T383 352Q383 307 385 283T394 246T410 232T437 229Q450 229 464 231T489 235V162ZM740 350Q740 267 724 201T670 88T569 16T410 -9Q315 -9 250 15T145 86T88 198T70 350Q70 433 87 499T145 612T251 684T410
709Q505 709 568 684T669 612T724 499T740 350ZM623 350Q623 416 617 465T588 546T524 595T410 611Q339 611 295 596T227 548T195 466T187 350Q187 284 195 235T227 153T295 105T410 89Q481 89 523 105T588 153T616 235T623 350Z" />
<glyph unicode="&#xaa;" glyph-name="ordfeminine" horiz-adv-x="431" d="M325 326Q314 326 297 334T272 366Q246 321 167 321Q146 321 126 326T91 345T65 382T55 442Q55 475 67 498T101 536T151 557T211 564H242V574Q242 594 231 608T192 622Q160 622 136 619T83
607V692Q94 695 109 698T140 703T173 706T204 707Q246 707 274 697T319 669T343 624T350 563V429Q350 405 376 405V326H325ZM62 0V115H363V0H62ZM202 409Q223 409 231 420T242 448V490H217Q195 490 179 481T163 447Q163 432 172 421T202 409Z" />
<glyph unicode="&#xab;" glyph-name="guillemotleft" horiz-adv-x="465" d="M137 92L50 299L137 506H245L184 299L245 92H137ZM307 92L220 299L307 506H415L354 299L415 92H307Z" />
<glyph unicode="&#xac;" glyph-name="logicalnot" horiz-adv-x="575" d="M395 106V245H60V360H515V106H395Z" />
<glyph unicode="&#xad;" glyph-name="uni00AD" horiz-adv-x="495" d="M75 245V360H420V245H75Z" />
<glyph unicode="&#xae;" glyph-name="registered" horiz-adv-x="810" d="M740 350Q740 267 724 201T670 88T569 16T410 -9Q315 -9 250 15T145 86T88 198T70 350Q70 433 87 499T145 612T251 684T410 709Q505 709 568 684T669 612T724 499T740 350ZM623 350Q623
416 617 465T588 546T524 595T410 611Q339 611 295 596T227 548T195 466T187 350Q187 284 195 235T227 153T295 105T410 89Q481 89 523 105T588 153T616 235T623 350ZM526 429Q526 384 512 358T474 319L549 159H456L395 306H383V159H300V544Q318 545 336 546Q352
547 370 547T406 548Q441 548 464 540T501 516T520 478T526 429ZM441 427Q441 457 434 467T400 478Q393 478 389 477Q385 476 383 476V378H393Q420 378 430 386T441 427Z" />
<glyph unicode="&#xaf;" glyph-name="overscore" horiz-adv-x="345" d="M25 591V700H320V591H25Z" />
<glyph unicode="&#xb0;" glyph-name="degree" horiz-adv-x="383" d="M249 542Q249 576 236 595T191 615Q159 615 146 596T133 542Q133 508 146 486T191 464Q223 464 236 486T249 542ZM363 541Q363 457 320 414T191 370Q105 370 63 413T20 541Q20 707 191 707Q363
707 363 541Z" />
<glyph unicode="&#xb1;" glyph-name="plusminus" horiz-adv-x="550" d="M75 0V115H485V0H75ZM341 245V157H219V245H69V360H219V518H341V360H491V245H341Z" />
<glyph unicode="&#xb2;" glyph-name="twosuperior" horiz-adv-x="410" d="M57 205V309L159 433Q176 452 186 466T202 495T210 524T212 557Q212 577 200 593T152 610Q128 610 108 607T70 599V696Q73 696 84 698T109 702T140 705T172 707Q247 707 287 665T327 550Q327
467 279 410L189 303H333V205H57Z" />
<glyph unicode="&#xb3;" glyph-name="threesuperior" horiz-adv-x="410" d="M331 361Q331 313 320 282T288 232T240 206T178 198Q164 198 148 199T115 202T87 206T69 209V303Q83 300 105 296T153 291Q182 291 199 306T216 353Q216 424 151 424H108V515H144Q165
515 177 519T197 531T206 549T208 571Q208 614 154 614Q133 614 112 610T73 602V696Q76 697 86 698T111 702T142 705T174 707Q216 707 244 699T290 673T315 629T322 566Q322 537 306 510T259 472Q290 464 310 433T331 361Z" />
<glyph unicode="&#xb4;" glyph-name="acute" horiz-adv-x="313" d="M25 580L129 715H288L136 580H25Z" />
<glyph unicode="&#xb5;" glyph-name="mu" horiz-adv-x="523" d="M65 -170V500H198V182Q198 157 202 142T213 119T230 109T254 106Q292 106 308 130T325 181V500H458V0H350L341 39Q318 17 289 4T222 -9Q215 -9 209 -9T198 -8V-170H65Z" />
<glyph unicode="&#xb6;" glyph-name="paragraph" horiz-adv-x="555" d="M377 0V700H500V0H377ZM333 0H207V354H188Q161 354 135 361T87 387T53 442T40 533Q40 587 54 621T92 675T146 702T209 709Q234 709 256 708T295 705Q315 703 333 700V593Q313 597 289 599T249
602Q200 602 182 587T164 531Q164 492 180 477T228 462H333V0Z" />
<glyph unicode="&#xb7;" glyph-name="middot" horiz-adv-x="250" d="M50 244V374H200V244H50Z" />
<glyph unicode="&#xb8;" glyph-name="cedilla" horiz-adv-x="336" d="M65 -127Q79 -129 93 -130T119 -132Q142 -132 150 -128T159 -109Q159 -96 142 -91T76 -86L98 50H194L183 -19Q228 -24 248 -50T269 -113Q269 -137 263 -157T241 -191T202 -214T141 -222Q124
-222 102 -220T65 -214V-127Z" />
<glyph unicode="&#xb9;" glyph-name="onesuperior" horiz-adv-x="410" d="M77 205V305H160V597L69 558V662L152 700H275V305H342V205H77Z" />
<glyph unicode="&#xba;" glyph-name="ordmasculine" horiz-adv-x="434" d="M269 512Q269 578 258 600T217 623Q202 623 192 619T176 602T168 568T165 512Q165 456 176 431T217 405Q247 405 258 430T269 512ZM379 522Q379 463 369 424T339 362T288 329T217 319Q177
319 147 328T96 361T65 424T55 522Q55 618 92 663T217 709Q305 709 342 664T379 522ZM58 0V115H372V0H58Z" />
<glyph unicode="&#xbb;" glyph-name="guillemotright" horiz-adv-x="465" d="M220 92L281 299L220 506H328L415 299L328 92H220ZM50 92L111 299L50 506H158L245 299L158 92H50Z" />
<glyph unicode="&#xbc;" glyph-name="onequarter" horiz-adv-x="875" d="M52 205V305H135V597L44 558V662L127 700H250V305H317V205H52ZM770 117V0H656V117H512V221L583 495H692L620 211H658L669 324H770V211L815 205V117H770ZM350 -100H231L541 810H660L350 -100Z" />
<glyph unicode="&#xbd;" glyph-name="onehalf" horiz-adv-x="875" d="M52 205V305H135V597L44 558V662L127 700H250V305H317V205H52ZM574 0V104L676 228Q693 247 703 261T719 290T727 319T729 352Q729 372 717 388T669 405Q645 405 625 402T587 394V491Q590 491
601 493T626 497T657 500T689 502Q764 502 804 460T844 345Q844 262 796 205L706 98H850V0H574ZM355 -100H236L546 810H665L355 -100Z" />
<glyph unicode="&#xbe;" glyph-name="threequarters" horiz-adv-x="875" d="M323 361Q323 313 312 282T280 232T232 206T170 198Q156 198 140 199T107 202T79 206T61 209V303Q75 300 97 296T145 291Q174 291 191 306T208 353Q208 424 143 424H100V515H136Q157
515 169 519T189 531T198 549T200 571Q200 614 146 614Q125 614 104 610T65 602V696Q68 697 78 698T103 702T134 705T166 707Q208 707 236 699T282 673T307 629T314 566Q314 537 298 510T251 472Q282 464 302 433T323 361ZM763 117V0H649V117H505V221L576 495H685L613
211H651L662 324H763V211H808V117H763ZM339 -100H220L530 810H649L339 -100Z" />
<glyph unicode="&#xbf;" glyph-name="questiondown" horiz-adv-x="380" d="M298 500V370H148V500H298ZM30 -28Q30 -3 33 15T42 50T58 81T83 114L156 202V272H291V163L211 65Q199 50 190 39T176 18T168 -2T165 -26Q165 -45 167 -58T178 -79T202 -91T245 -95Q265
-95 295 -91T350 -80V-193Q340 -195 324 -198T290 -203T255 -207T223 -209Q175 -209 139 -202T78 -175T42 -120T30 -28Z" />
<glyph unicode="&#xc0;" glyph-name="Agrave" horiz-adv-x="545" d="M247 726L95 841H256L360 726H247ZM273 612L213 281H335L273 612ZM389 0L357 163H190L158 0H15L175 700H377L530 0H389Z" />
<glyph unicode="&#xc1;" glyph-name="Aacute" horiz-adv-x="545" d="M164 726L268 841H429L277 726H164ZM273 612L213 281H335L273 612ZM389 0L357 163H190L158 0H15L175 700H377L530 0H389Z" />
<glyph unicode="&#xc2;" glyph-name="Acircumflex" horiz-adv-x="545" d="M319 730L279 791L239 730H93L203 845H355L466 730H319ZM273 612L213 281H335L273 612ZM389 0L357 163H190L158 0H15L175 700H377L530 0H389Z" />
<glyph unicode="&#xc3;" glyph-name="Atilde" horiz-adv-x="545" d="M273 612L213 281H335L273 612ZM389 0L357 163H190L158 0H15L175 700H377L530 0H389ZM116 827Q139 846 165 853T212 860Q230 860 249 854T287 841T323 827T356 821Q382 821 404 830T446 857V753Q426
734 401 727T350 720Q331 720 313 726T276 739T240 753T206 759Q180 759 156 748T116 723V827Z" />
<glyph unicode="&#xc4;" glyph-name="Adieresis" horiz-adv-x="545" d="M273 612L213 281H335L273 612ZM389 0L357 163H190L158 0H15L175 700H377L530 0H389ZM311 730V845H441V730H311ZM111 730V845H241V730H111Z" />
<glyph unicode="&#xc5;" glyph-name="Aring" horiz-adv-x="545" d="M392 763Q392 722 378 694L530 0H389L357 163H190L158 0H15L173 694Q160 720 160 763Q160 821 188 853T276 885Q336 885 364 853T392 763ZM273 612L213 281H335L273 612ZM304 764Q304 789 299
801T276 813Q258 813 253 801T248 764Q248 739 253 727T276 715Q293 715 298 727T304 764Z" />
<glyph unicode="&#xc6;" glyph-name="AE" horiz-adv-x="781" d="M383 0L364 163H200L154 0H15L225 700H711V592H444L470 415H703V308H486L516 108H731V0H383ZM232 281H350L315 580L232 281Z" />
<glyph unicode="&#xc7;" glyph-name="Ccedilla" horiz-adv-x="433" d="M181 -127Q195 -129 209 -130T235 -132Q258 -132 266 -128T275 -109Q275 -96 258 -91T192 -86L205 -1Q165 7 136 28T88 92T60 199T50 361Q50 475 65 543T110 648T184 695T285 707Q295 707
311 706T343 702T373 698T393 693V572Q368 578 334 582T272 587Q250 587 235 580T209 548T194 478T189 354Q189 276 193 229T207 156T233 122T272 113Q303 113 338 118T393 128V8Q380 4 353 1T301 -5L299 -19Q344 -24 364 -50T385 -113Q385 -137 379 -157T357 -191T318
-214T257 -222Q240 -222 218 -220T181 -214V-127Z" />
<glyph unicode="&#xc8;" glyph-name="Egrave" horiz-adv-x="478" d="M249 726L97 841H258L362 726H249ZM70 0V700H428V592H207V415H403V308H207V108H428V0H70Z" />
<glyph unicode="&#xc9;" glyph-name="Eacute" horiz-adv-x="478" d="M149 726L253 841H414L262 726H149ZM70 0V700H428V592H207V415H403V308H207V108H428V0H70Z" />
<glyph unicode="&#xca;" glyph-name="Ecircumflex" horiz-adv-x="478" d="M289 730L249 791L209 730H63L173 845H325L436 730H289ZM70 0V700H428V592H207V415H403V308H207V108H428V0H70Z" />
<glyph unicode="&#xcb;" glyph-name="Edieresis" horiz-adv-x="478" d="M70 0V700H428V592H207V415H403V308H207V108H428V0H70ZM285 720V835H415V720H285ZM85 720V835H215V720H85Z" />
<glyph unicode="&#xcc;" glyph-name="Igrave" horiz-adv-x="347" d="M176 726L24 841H185L289 726H176ZM35 0V106H105V594H35V700H312V594H242V106H312V0H35Z" />
<glyph unicode="&#xcd;" glyph-name="Iacute" horiz-adv-x="347" d="M55 726L159 841H320L168 726H55ZM35 0V106H105V594H35V700H312V594H242V106H312V0H35Z" />
<glyph unicode="&#xce;" glyph-name="Icircumflex" horiz-adv-x="347" d="M213 730L173 791L133 730H-13L97 845H249L360 730H213ZM35 0V106H105V594H35V700H312V594H242V106H312V0H35Z" />
<glyph unicode="&#xcf;" glyph-name="Idieresis" horiz-adv-x="347" d="M35 0V106H105V594H35V700H312V594H242V106H312V0H35ZM209 720V835H339V720H209ZM9 720V835H139V720H9Z" />
<glyph unicode="&#xd0;" glyph-name="Eth" horiz-adv-x="561" d="M511 361Q511 249 496 177T451 64T377 6T274 -10Q248 -10 215 -9T153 -5Q120 -2 85 0V325H30V440H85V700Q120 702 153 705Q181 707 211 708T262 710Q322 710 368 697T446 646T494 540T511 361ZM372
354Q372 435 367 481T351 552T324 582T284 589Q270 589 259 589T239 587Q229 586 222 585V440H305V325H222V115Q228 114 237 113Q245 112 256 112T283 111Q306 111 323 122T351 160T367 235T372 354Z" />
<glyph unicode="&#xd1;" glyph-name="Ntilde" horiz-adv-x="592" d="M323 0L191 562V0H70V700H269L403 127V700H522V0H323ZM134 827Q157 846 183 853T230 860Q248 860 267 854T305 841T341 827T374 821Q400 821 422 830T464 857V753Q444 734 419 727T368 720Q349
720 331 726T294 739T258 753T224 759Q198 759 174 748T134 723V827Z" />
<glyph unicode="&#xd2;" glyph-name="Ograve" horiz-adv-x="568" d="M253 726L101 841H262L366 726H253ZM379 353Q379 430 374 478T358 554T329 592T284 602Q257 602 239 592T210 555T194 479T189 353Q189 277 194 228T210 150T239 110T284 98Q311 98 329 109T358
150T374 228T379 353ZM518 358Q518 266 510 197T476 82T404 13T284 -10Q210 -10 164 13T93 82T59 197T50 358Q50 446 59 512T95 622T166 688T284 710Q356 710 401 688T473 622T508 512T518 358Z" />
<glyph unicode="&#xd3;" glyph-name="Oacute" horiz-adv-x="568" d="M196 726L300 841H461L309 726H196ZM379 353Q379 430 374 478T358 554T329 592T284 602Q257 602 239 592T210 555T194 479T189 353Q189 277 194 228T210 150T239 110T284 98Q311 98 329 109T358
150T374 228T379 353ZM518 358Q518 266 510 197T476 82T404 13T284 -10Q210 -10 164 13T93 82T59 197T50 358Q50 446 59 512T95 622T166 688T284 710Q356 710 401 688T473 622T508 512T518 358Z" />
<glyph unicode="&#xd4;" glyph-name="Ocircumflex" horiz-adv-x="568" d="M324 730L284 791L244 730H98L208 845H360L471 730H324ZM379 353Q379 430 374 478T358 554T329 592T284 602Q257 602 239 592T210 555T194 479T189 353Q189 277 194 228T210 150T239 110T284
98Q311 98 329 109T358 150T374 228T379 353ZM518 358Q518 266 510 197T476 82T404 13T284 -10Q210 -10 164 13T93 82T59 197T50 358Q50 446 59 512T95 622T166 688T284 710Q356 710 401 688T473 622T508 512T518 358Z" />
<glyph unicode="&#xd5;" glyph-name="Otilde" horiz-adv-x="568" d="M379 353Q379 430 374 478T358 554T329 592T284 602Q257 602 239 592T210 555T194 479T189 353Q189 277 194 228T210 150T239 110T284 98Q311 98 329 109T358 150T374 228T379 353ZM518 358Q518
266 510 197T476 82T404 13T284 -10Q210 -10 164 13T93 82T59 197T50 358Q50 446 59 512T95 622T166 688T284 710Q356 710 401 688T473 622T508 512T518 358ZM118 827Q141 846 167 853T214 860Q232 860 251 854T289 841T325 827T358 821Q384 821 406 830T448 857V753Q428
734 403 727T352 720Q333 720 315 726T278 739T242 753T208 759Q182 759 158 748T118 723V827Z" />
<glyph unicode="&#xd6;" glyph-name="Odieresis" horiz-adv-x="568" d="M319 730V845H449V730H319ZM119 730V845H249V730H119ZM379 353Q379 430 374 478T358 554T329 592T284 602Q257 602 239 592T210 555T194 479T189 353Q189 277 194 228T210 150T239 110T284
98Q311 98 329 109T358 150T374 228T379 353ZM518 358Q518 266 510 197T476 82T404 13T284 -10Q210 -10 164 13T93 82T59 197T50 358Q50 446 59 512T95 622T166 688T284 710Q356 710 401 688T473 622T508 512T518 358Z" />
<glyph unicode="&#xd7;" glyph-name="multiply" horiz-adv-x="570" d="M200 300L83 417L168 502L285 385L402 502L487 417L370 300L487 183L402 98L285 215L168 98L83 183L200 300Z" />
<glyph unicode="&#xd8;" glyph-name="Oslash" horiz-adv-x="548" d="M523 358Q523 266 515 197T481 82T409 13T289 -10Q269 -10 252 -8T219 -3L191 -91H91L132 37Q85 80 70 160T55 358Q55 446 64 512T100 622T171 688T289 710Q305 710 319 709T347 705L375 791H475L436
670Q487 630 505 553T523 358ZM384 353Q384 437 378 489L254 104Q262 100 270 99T289 98Q316 98 334 109T363 150T379 228T384 353ZM194 353Q194 319 195 291T198 240L313 599Q301 602 289 602Q262 602 244 592T215 555T199 479T194 353Z" />
<glyph unicode="&#xd9;" glyph-name="Ugrave" horiz-adv-x="555" d="M243 726L91 841H252L356 726H243ZM490 215Q490 153 476 111T435 42T369 5T278 -7Q227 -7 188 4T121 42T80 110T65 215V700H202V196Q202 111 278 111Q317 111 335 132T353 196V700H490V215Z" />
<glyph unicode="&#xda;" glyph-name="Uacute" horiz-adv-x="555" d="M201 726L305 841H466L314 726H201ZM490 215Q490 153 476 111T435 42T369 5T278 -7Q227 -7 188 4T121 42T80 110T65 215V700H202V196Q202 111 278 111Q317 111 335 132T353 196V700H490V215Z" />
<glyph unicode="&#xdb;" glyph-name="Ucircumflex" horiz-adv-x="555" d="M316 730L276 791L236 730H90L200 845H352L463 730H316ZM490 215Q490 153 476 111T435 42T369 5T278 -7Q227 -7 188 4T121 42T80 110T65 215V700H202V196Q202 111 278 111Q317 111 335
132T353 196V700H490V215Z" />
<glyph unicode="&#xdc;" glyph-name="Udieresis" horiz-adv-x="555" d="M311 730V845H441V730H311ZM111 730V845H241V730H111ZM490 215Q490 153 476 111T435 42T369 5T278 -7Q227 -7 188 4T121 42T80 110T65 215V700H202V196Q202 111 278 111Q317 111 335 132T353
196V700H490V215Z" />
<glyph unicode="&#xdd;" glyph-name="Yacute" horiz-adv-x="531" d="M196 726L300 841H461L309 726H196ZM334 308V0H194V308L10 700H158L269 430L380 700H521L334 308Z" />
<glyph unicode="&#xde;" glyph-name="Thorn" horiz-adv-x="530" d="M485 360Q485 294 471 249T429 176T360 136T264 124H207V0H70V700H207V592Q219 592 230 592T254 593Q322 593 366 578T437 533T474 460T485 360ZM346 353Q346 412 331 442T272 473Q240 473 223
470Q213 468 207 467V242H270Q305 242 325 272T346 353Z" />
<glyph unicode="&#xdf;" glyph-name="germandbls" horiz-adv-x="537" d="M492 166Q492 112 478 78T439 25T382 -2T315 -9Q306 -9 295 -9T270 -7T245 -4T223 0V114Q237 109 257 106T288 103Q355 103 355 161Q355 191 340 208T292 239Q249 259 230 288T211 370Q211
421 240 455T319 496Q322 503 325 516T328 537Q328 564 315 580T262 597Q226 597 213 577T199 510V0H65V503Q65 545 74 582T106 647T167 692T262 709Q348 709 398 669T448 557Q448 520 444 486T432 413Q379 413 360 404T340 369Q340 355 349 349T374 335Q399 325
420 313T458 281T483 233T492 166Z" />
<glyph unicode="&#xe0;" glyph-name="agrave" horiz-adv-x="509" d="M416 0Q396 0 370 8T330 41Q311 18 280 5T198 -9Q165 -9 137 -1T89 25T57 74T45 151Q45 242 99 280T257 318H302V339Q302 368 288 383T235 399Q192 399 156 393T81 375V489Q95 493 114 496T153
503T195 507T235 509Q299 509 338 499T398 466T427 410T435 330V132Q435 117 443 109T474 100V0H416ZM236 103Q257 103 269 110T289 129T299 152T302 175V220H252Q220 220 200 206T180 158Q180 135 192 119T236 103ZM254 580L102 715H261L365 580H254Z" />
<glyph unicode="&#xe1;" glyph-name="aacute" horiz-adv-x="509" d="M416 0Q396 0 370 8T330 41Q311 18 280 5T198 -9Q165 -9 137 -1T89 25T57 74T45 151Q45 242 99 280T257 318H302V339Q302 368 288 383T235 399Q192 399 156 393T81 375V489Q95 493 114 496T153
503T195 507T235 509Q299 509 338 499T398 466T427 410T435 330V132Q435 117 443 109T474 100V0H416ZM236 103Q257 103 269 110T289 129T299 152T302 175V220H252Q220 220 200 206T180 158Q180 135 192 119T236 103ZM181 580L285 715H444L292 580H181Z" />
<glyph unicode="&#xe2;" glyph-name="acircumflex" horiz-adv-x="509" d="M416 0Q396 0 370 8T330 41Q311 18 280 5T198 -9Q165 -9 137 -1T89 25T57 74T45 151Q45 242 99 280T257 318H302V339Q302 368 288 383T235 399Q192 399 156 393T81 375V489Q95 493 114
496T153 503T195 507T235 509Q299 509 338 499T398 466T427 410T435 330V132Q435 117 443 109T474 100V0H416ZM236 103Q257 103 269 110T289 129T299 152T302 175V220H252Q220 220 200 206T180 158Q180 135 192 119T236 103ZM305 580L255 654L205 580H59L181 715H329L452
580H305Z" />
<glyph unicode="&#xe3;" glyph-name="atilde" horiz-adv-x="509" d="M416 0Q396 0 370 8T330 41Q311 18 280 5T198 -9Q165 -9 137 -1T89 25T57 74T45 151Q45 242 99 280T257 318H302V339Q302 368 288 383T235 399Q192 399 156 393T81 375V489Q95 493 114 496T153
503T195 507T235 509Q299 509 338 499T398 466T427 410T435 330V132Q435 117 443 109T474 100V0H416ZM236 103Q257 103 269 110T289 129T299 152T302 175V220H252Q220 220 200 206T180 158Q180 135 192 119T236 103ZM94 687Q117 706 143 713T190 720Q208 720 227
714T265 701T301 687T334 681Q360 681 382 690T424 717V613Q404 594 379 587T328 580Q309 580 291 586T254 599T218 613T184 619Q158 619 134 608T94 583V687Z" />
<glyph unicode="&#xe4;" glyph-name="adieresis" horiz-adv-x="509" d="M416 0Q396 0 370 8T330 41Q311 18 280 5T198 -9Q165 -9 137 -1T89 25T57 74T45 151Q45 242 99 280T257 318H302V339Q302 368 288 383T235 399Q192 399 156 393T81 375V489Q95 493 114 496T153
503T195 507T235 509Q299 509 338 499T398 466T427 410T435 330V132Q435 117 443 109T474 100V0H416ZM236 103Q257 103 269 110T289 129T299 152T302 175V220H252Q220 220 200 206T180 158Q180 135 192 119T236 103ZM293 560V675H423V560H293ZM93 560V675H223V560H93Z"
/>
<glyph unicode="&#xe5;" glyph-name="aring" horiz-adv-x="509" d="M279 646Q279 671 274 683T251 695Q233 695 228 683T223 646Q223 621 228 609T251 597Q268 597 273 609T279 646ZM367 645Q367 587 340 555T251 523Q190 523 163 555T135 645Q135 703 163 735T251
767Q311 767 339 735T367 645ZM416 0Q396 0 370 8T330 41Q311 18 280 5T198 -9Q165 -9 137 -1T89 25T57 74T45 151Q45 242 99 280T257 318H302V339Q302 368 288 383T235 399Q192 399 156 393T81 375V489Q95 493 114 496T153 503T195 507T235 509Q299 509 338 499T398
466T427 410T435 330V132Q435 117 443 109T474 100V0H416ZM236 103Q257 103 269 110T289 129T299 152T302 175V220H252Q220 220 200 206T180 158Q180 135 192 119T236 103Z" />
<glyph unicode="&#xe6;" glyph-name="ae" horiz-adv-x="741" d="M441 209Q442 179 446 159T461 127T486 110T525 105Q567 105 604 110T664 120V8Q652 5 634 2T596 -4T558 -7T525 -9Q463 -9 421 3T354 53Q334 24 297 8T203 -9Q170 -9 142 -2T94 24T62 72T50 148Q50
193 64 223T105 272T171 299T262 307H307V339Q307 368 293 383T240 399Q197 399 161 393T86 375V489Q100 493 119 496T158 503T200 507T240 509Q297 509 333 500T390 474Q435 509 512 509Q569 509 605 494T663 451T692 380T701 285V209H441ZM241 103Q262 103 274
110T294 129T304 152T307 175V209H257Q225 209 205 198T185 155Q185 132 197 118T241 103ZM510 399Q480 399 464 379T443 307H573V325Q573 362 558 380T510 399Z" />
<glyph unicode="&#xe7;" glyph-name="ccedilla" horiz-adv-x="407" d="M161 -127Q175 -129 189 -130T215 -132Q238 -132 246 -128T255 -109Q255 -96 238 -91T172 -86L185 -4Q152 2 127 17T85 63T59 142T50 260Q50 394 102 451T253 509Q278 509 311 505T367 495V378Q353
381 342 383T318 388T292 391T259 392Q242 392 229 386T206 364T192 318T187 240Q187 165 204 137T257 108Q295 108 320 113T367 122V6Q349 1 327 -2T281 -8L279 -19Q324 -24 344 -50T365 -113Q365 -137 359 -157T337 -191T298 -214T237 -222Q220 -222 198 -220T161
-214V-127Z" />
<glyph unicode="&#xe8;" glyph-name="egrave" horiz-adv-x="489" d="M185 201Q188 146 205 126T268 105Q310 105 347 110T407 120V8Q395 5 377 2T339 -4T301 -7T268 -9Q214 -9 173 0T105 37T64 115T50 250Q50 319 63 368T103 449T168 494T255 509Q312 509 348
494T406 451T435 380T444 285V201H185ZM253 399Q222 399 207 377T186 299H316V325Q316 362 301 380T253 399ZM248 580L96 715H255L359 580H248Z" />
<glyph unicode="&#xe9;" glyph-name="eacute" horiz-adv-x="489" d="M185 201Q188 146 205 126T268 105Q310 105 347 110T407 120V8Q395 5 377 2T339 -4T301 -7T268 -9Q214 -9 173 0T105 37T64 115T50 250Q50 319 63 368T103 449T168 494T255 509Q312 509 348
494T406 451T435 380T444 285V201H185ZM253 399Q222 399 207 377T186 299H316V325Q316 362 301 380T253 399ZM162 580L266 715H425L273 580H162Z" />
<glyph unicode="&#xea;" glyph-name="ecircumflex" horiz-adv-x="489" d="M185 201Q188 146 205 126T268 105Q310 105 347 110T407 120V8Q395 5 377 2T339 -4T301 -7T268 -9Q214 -9 173 0T105 37T64 115T50 250Q50 319 63 368T103 449T168 494T255 509Q312 509
348 494T406 451T435 380T444 285V201H185ZM253 399Q222 399 207 377T186 299H316V325Q316 362 301 380T253 399ZM297 580L247 654L197 580H51L173 715H321L444 580H297Z" />
<glyph unicode="&#xeb;" glyph-name="edieresis" horiz-adv-x="489" d="M185 201Q188 146 205 126T268 105Q310 105 347 110T407 120V8Q395 5 377 2T339 -4T301 -7T268 -9Q214 -9 173 0T105 37T64 115T50 250Q50 319 63 368T103 449T168 494T255 509Q312 509 348
494T406 451T435 380T444 285V201H185ZM253 399Q222 399 207 377T186 299H316V325Q316 362 301 380T253 399ZM289 560V675H419V560H289ZM89 560V675H219V560H89Z" />
<glyph unicode="&#xec;" glyph-name="igrave" horiz-adv-x="263" d="M65 0V500H198V0H65ZM113 580L-39 715H120L224 580H113Z" />
<glyph unicode="&#xed;" glyph-name="iacute" horiz-adv-x="263" d="M65 0V500H198V0H65ZM36 580L140 715H299L147 580H36Z" />
<glyph unicode="&#xee;" glyph-name="icircumflex" horiz-adv-x="263" d="M65 0V500H198V0H65ZM181 580L131 654L81 580H-65L57 715H205L328 580H181Z" />
<glyph unicode="&#xef;" glyph-name="idieresis" horiz-adv-x="263" d="M65 0V500H198V0H65ZM167 560V675H297V560H167ZM-33 560V675H97V560H-33Z" />
<glyph unicode="&#xf0;" glyph-name="eth" horiz-adv-x="508" d="M50 210Q50 269 58 317T86 399T139 451T223 469Q249 469 271 464T314 448Q308 489 297 515T270 558L247 516H140L183 595Q163 597 142 597T97 597V709Q137 709 173 708T241 701L268 750H375L333
673Q362 658 384 634T422 572T445 482T453 361Q453 253 441 182T403 68T335 9T236 -9Q208 -9 176 0T115 33T69 100T50 210ZM247 361Q214 361 199 324T183 221Q183 184 187 161T199 124T219 106T249 101Q266 101 279 109T301 143T315 217T320 346Q304 352 286 356T247
361Z" />
<glyph unicode="&#xf1;" glyph-name="ntilde" horiz-adv-x="524" d="M65 0V500H173L182 461Q205 483 235 496T302 509Q354 509 385 497T434 460T458 398T464 310V0H331V313Q331 363 317 378T275 394Q237 394 219 372T198 324V0H65ZM117 687Q140 706 166 713T213
720Q231 720 250 714T288 701T324 687T357 681Q383 681 405 690T447 717V613Q427 594 402 587T351 580Q332 580 314 586T277 599T241 613T207 619Q181 619 157 608T117 583V687Z" />
<glyph unicode="&#xf2;" glyph-name="ograve" horiz-adv-x="530" d="M480 260Q480 181 466 130T425 48T358 5T264 -7Q211 -7 171 5T104 47T64 129T50 260Q50 388 100 447T264 507Q377 507 428 448T480 260ZM344 245Q344 289 340 318T327 366T302 391T264 399Q242
399 227 392T203 366T190 319T186 245Q186 203 189 176T202 132T226 108T264 101Q287 101 302 108T327 131T340 175T344 245ZM248 580L96 715H255L359 580H248Z" />
<glyph unicode="&#xf3;" glyph-name="oacute" horiz-adv-x="530" d="M480 260Q480 181 466 130T425 48T358 5T264 -7Q211 -7 171 5T104 47T64 129T50 260Q50 388 100 447T264 507Q377 507 428 448T480 260ZM344 245Q344 289 340 318T327 366T302 391T264 399Q242
399 227 392T203 366T190 319T186 245Q186 203 189 176T202 132T226 108T264 101Q287 101 302 108T327 131T340 175T344 245ZM170 580L274 715H433L281 580H170Z" />
<glyph unicode="&#xf4;" glyph-name="ocircumflex" horiz-adv-x="530" d="M480 260Q480 181 466 130T425 48T358 5T264 -7Q211 -7 171 5T104 47T64 129T50 260Q50 388 100 447T264 507Q377 507 428 448T480 260ZM344 245Q344 289 340 318T327 366T302 391T264
399Q242 399 227 392T203 366T190 319T186 245Q186 203 189 176T202 132T226 108T264 101Q287 101 302 108T327 131T340 175T344 245ZM315 580L265 654L215 580H69L191 715H339L462 580H315Z" />
<glyph unicode="&#xf5;" glyph-name="otilde" horiz-adv-x="530" d="M480 260Q480 181 466 130T425 48T358 5T264 -7Q211 -7 171 5T104 47T64 129T50 260Q50 388 100 447T264 507Q377 507 428 448T480 260ZM344 245Q344 289 340 318T327 366T302 391T264 399Q242
399 227 392T203 366T190 319T186 245Q186 203 189 176T202 132T226 108T264 101Q287 101 302 108T327 131T340 175T344 245ZM100 687Q123 706 149 713T196 720Q214 720 233 714T271 701T307 687T340 681Q366 681 388 690T430 717V613Q410 594 385 587T334 580Q315
580 297 586T260 599T224 613T190 619Q164 619 140 608T100 583V687Z" />
<glyph unicode="&#xf6;" glyph-name="odieresis" horiz-adv-x="530" d="M480 260Q480 181 466 130T425 48T358 5T264 -7Q211 -7 171 5T104 47T64 129T50 260Q50 388 100 447T264 507Q377 507 428 448T480 260ZM344 245Q344 289 340 318T327 366T302 391T264 399Q242
399 227 392T203 366T190 319T186 245Q186 203 189 176T202 132T226 108T264 101Q287 101 302 108T327 131T340 175T344 245ZM303 560V675H433V560H303ZM103 560V675H233V560H103Z" />
<glyph unicode="&#xf7;" glyph-name="divide" horiz-adv-x="550" d="M70 245V360H480V245H70ZM200 45V175H350V45H200ZM200 430V560H350V430H200Z" />
<glyph unicode="&#xf8;" glyph-name="oslash" horiz-adv-x="530" d="M480 260Q480 181 466 130T425 48T358 5T264 -7Q238 -7 215 -4L183 -89H88L131 24Q90 50 70 106T50 260Q50 388 100 447T264 507Q278 507 291 506T316 503L349 589H443L399 473Q480 419 480
260ZM186 245Q186 204 189 175L275 398Q272 399 264 399Q242 399 227 392T203 366T190 319T186 245ZM344 245Q344 267 343 285T340 319L256 101H264Q287 101 302 108T327 131T340 175T344 245Z" />
<glyph unicode="&#xf9;" glyph-name="ugrave" horiz-adv-x="518" d="M193 500V182Q193 157 197 142T208 119T225 109T249 106Q287 106 303 130T320 181V500H453V0H345L336 39Q313 17 284 4T217 -9Q170 -9 140 3T92 39T67 100T60 186V500H193ZM222 580L70 715H229L333
580H222Z" />
<glyph unicode="&#xfa;" glyph-name="uacute" horiz-adv-x="518" d="M193 500V182Q193 157 197 142T208 119T225 109T249 106Q287 106 303 130T320 181V500H453V0H345L336 39Q313 17 284 4T217 -9Q170 -9 140 3T92 39T67 100T60 186V500H193ZM150 580L254 715H413L261
580H150Z" />
<glyph unicode="&#xfb;" glyph-name="ucircumflex" horiz-adv-x="518" d="M193 500V182Q193 157 197 142T208 119T225 109T249 106Q287 106 303 130T320 181V500H453V0H345L336 39Q313 17 284 4T217 -9Q170 -9 140 3T92 39T67 100T60 186V500H193ZM306 580L256
654L206 580H60L182 715H330L453 580H306Z" />
<glyph unicode="&#xfc;" glyph-name="udieresis" horiz-adv-x="518" d="M193 500V182Q193 157 197 142T208 119T225 109T249 106Q287 106 303 130T320 181V500H453V0H345L336 39Q313 17 284 4T217 -9Q170 -9 140 3T92 39T67 100T60 186V500H193ZM292 560V675H422V560H292ZM92
560V675H222V560H92Z" />
<glyph unicode="&#xfd;" glyph-name="yacute" horiz-adv-x="493" d="M345 -42Q313 -177 203 -177Q195 -177 182 -177T155 -176T130 -174T113 -172V-59Q137 -62 162 -62Q203 -62 211 -18L214 0H180L20 500H162L259 111L344 500H473L345 -42ZM173 580L277 715H436L284
580H173Z" />
<glyph unicode="&#xfe;" glyph-name="thorn" horiz-adv-x="519" d="M65 -170V700H198V-170H65ZM469 282Q469 200 457 144T417 54T344 6T234 -9Q195 -9 154 -4T84 5L148 113Q161 112 189 109T241 105Q269 105 287 111T315 136T330 187T334 272Q334 310 331 334T321
371T301 390T271 395Q238 395 218 371T198 320L115 336Q124 367 139 398T178 453T232 493T306 509Q347 509 378 498T429 460T459 391T469 282Z" />
<glyph unicode="&#xff;" glyph-name="ydieresis" horiz-adv-x="493" d="M345 -42Q313 -177 203 -177Q195 -177 182 -177T155 -176T130 -174T113 -172V-59Q137 -62 162 -62Q203 -62 211 -18L214 0H180L20 500H162L259 111L344 500H473L345 -42ZM279 560V675H409V560H279ZM79
560V675H209V560H79Z" />
<glyph unicode="&#x2013;" glyph-name="endash" horiz-adv-x="550" d="M75 245V360H475V245H75Z" />
<glyph unicode="&#x2014;" glyph-name="emdash" horiz-adv-x="605" d="M55 245V360H550V245H55Z" />
<glyph unicode="&#x2018;" glyph-name="quoteleft" horiz-adv-x="235" d="M110 699H205L175 542V432H40V542L110 699Z" />
<glyph unicode="&#x2019;" glyph-name="quoteright" horiz-adv-x="235" d="M125 433H30L60 590V700H195V590L125 433Z" />
<glyph unicode="&#x201a;" glyph-name="quotesinglbase" horiz-adv-x="235" d="M125 -157H30L60 0V110H195V0L125 -157Z" />
<glyph unicode="&#x201c;" glyph-name="quotedblleft" horiz-adv-x="405" d="M110 699H205L175 542V432H40V542L110 699ZM280 699H375L345 542V432H210V542L280 699Z" />
<glyph unicode="&#x201d;" glyph-name="quotedblright" horiz-adv-x="395" d="M295 433H200L230 590V700H365V590L295 433ZM125 433H30L60 590V700H195V590L125 433Z" />
<glyph unicode="&#x201e;" glyph-name="quotedblbase" horiz-adv-x="395" d="M295 -157H200L230 0V110H365V0L295 -157ZM125 -157H30L60 0V110H195V0L125 -157Z" />
<glyph unicode="&#x2022;" glyph-name="bullet" horiz-adv-x="305" d="M50 215V410H255V215H50Z" />
<glyph unicode="&#x2039;" glyph-name="guilsinglleft" horiz-adv-x="295" d="M137 92L50 299L137 506H245L184 299L245 92H137Z" />
<glyph unicode="&#x203a;" glyph-name="guilsinglright" horiz-adv-x="295" d="M50 92L111 299L50 506H158L245 299L158 92H50Z" />
</font>
</defs>
</svg>
