<?xml version="1.0" standalone="no"?>
<!DOCTYPE svg PUBLIC "-//W3C//DTD SVG 1.1//EN" "http://www.w3.org/Graphics/SVG/1.1/DTD/svg11.dtd">
<svg xmlns="http://www.w3.org/2000/svg">
<defs >
<font id="Share" horiz-adv-x="405" ><font-face
    font-family="Share"
    units-per-em="1000"
    panose-1="2 0 5 6 4 0 0 2 0 4"
    ascent="885"
    descent="-242"
    alphabetic="0" />
<glyph unicode=" " glyph-name="space" horiz-adv-x="260" />
<glyph unicode="!" glyph-name="exclam" horiz-adv-x="250" d="M65 0L73 100H173L165 0H65ZM90 208L133 700H218L175 208H90Z" />
<glyph unicode="&quot;" glyph-name="quotedbl" horiz-adv-x="360" d="M159 453H104L98 610L106 700H201L193 610L159 453ZM314 453H259L253 610L261 700H356L348 610L314 453Z" />
<glyph unicode="#" glyph-name="numbersign" horiz-adv-x="470" d="M304 455H224L207 255H287L304 455ZM360 180L345 0H265L280 180H200L185 0H105L120 180H50L57 255H127L144 455H74L81 530H151L166 700H246L231 530H311L326 700H406L391 530H461L454 455H384L367
255H437L430 180H360Z" />
<glyph unicode="$" glyph-name="dollar" horiz-adv-x="470" d="M170 -130L181 -5Q131 -4 84 10L91 83Q114 77 142 73T205 68Q262 68 284 104T306 213Q306 262 290 283T245 310Q183 323 149 365T114 472Q114 519 123 552T148 609T188 646T240 667L250 780H335L326
675Q352 674 372 670T412 660L406 587Q381 593 354 597T301 602Q280 602 262 596T231 576T211 538T204 478Q204 441 217 421T265 393Q329 379 362 341T396 228Q396 220 396 212T394 194Q390 146 380 112T353 56T315 21T266 2L255 -130H170Z" />
<glyph unicode="%" glyph-name="percent" horiz-adv-x="856" d="M323 496Q326 526 326 551Q326 602 313 625T268 648Q226 648 205 600T184 438Q184 388 197 366T241 344Q279 344 297 380T323 496ZM392 500Q388 453 380 414T355 346T310 301T236 285Q201 285 178
296T140 327T121 376T115 440Q115 469 118 500Q122 547 130 585T154 650T199 692T273 707Q309 707 332 697T370 667T389 621T395 559Q395 532 392 500ZM335 0H257L563 700H641L335 0ZM710 204Q713 234 713 259Q713 310 700 333T655 356Q613 356 592 308T571 146Q571
96 584 74T628 52Q666 52 684 88T710 204ZM779 208Q775 161 767 122T742 54T697 9T623 -7Q588 -7 565 4T527 35T508 84T502 148Q502 177 505 208Q509 255 517 293T541 358T586 400T660 415Q696 415 719 405T757 375T776 329T782 267Q782 240 779 208Z" />
<glyph unicode="&amp;" glyph-name="ampersand" horiz-adv-x="507" d="M70 158Q70 202 75 243T92 318T123 375T170 407Q140 429 127 460T114 521Q114 582 130 618T174 674T236 700T311 707Q343 707 372 701T410 692L403 619Q399 620 387 622T360 627T330 632T303
634Q283 634 265 631T232 616T208 583T199 525Q199 489 215 465T275 440H510L504 367H420L389 5Q350 -1 311 -4T225 -7Q151 -7 111 31T70 158ZM232 66Q263 66 284 69T316 74L341 367H254Q227 367 209 350T179 304T162 240T156 167Q156 119 176 93T232 66Z" />
<glyph unicode="&apos;" glyph-name="quotesingle" horiz-adv-x="205" d="M159 453H104L98 610L106 700H201L193 610L159 453Z" />
<glyph unicode="(" glyph-name="parenleft" horiz-adv-x="320" d="M71 248Q71 328 80 406T110 558T161 698T238 820H321Q235 699 195 552T155 241Q155 137 175 51T239 -120H156Q109 -39 90 55T71 248Z" />
<glyph unicode=")" glyph-name="parenright" horiz-adv-x="320" d="M290 452Q290 280 251 135T122 -120H39Q125 1 165 148T205 459Q205 563 185 649T121 820H204Q252 739 271 644T290 452Z" />
<glyph unicode="*" glyph-name="asterisk" horiz-adv-x="482" d="M314 500L417 377L346 327L260 469L172 326L103 378L206 500L65 530L92 610L229 555L216 705H306L293 555L432 608L457 529L314 500Z" />
<glyph unicode="+" glyph-name="plus" horiz-adv-x="550" d="M329 275L315 118H235L249 275H98L104 350H255L269 508H349L335 350H485L479 275H329Z" />
<glyph unicode="," glyph-name="comma" horiz-adv-x="230" d="M70 -140H2L55 0L63 100H163L155 0L70 -140Z" />
<glyph unicode="-" glyph-name="hyphen" horiz-adv-x="495" d="M99 275L105 350H430L424 275H99Z" />
<glyph unicode="." glyph-name="period" horiz-adv-x="230" d="M55 0L63 100H163L155 0H55Z" />
<glyph unicode="/" glyph-name="slash" horiz-adv-x="325" d="M64 -110H-14L301 810H380L64 -110Z" />
<glyph unicode="0" glyph-name="zero" horiz-adv-x="470" d="M357 505Q357 542 353 566T340 606T316 627T280 634Q251 634 232 621T199 576T178 490T162 353Q161 345 160 322T158 274T155 228T154 201Q154 127 170 97T230 66Q260 66 280 80T312 129T333 217T348
353Q357 448 357 505ZM441 491Q441 462 440 429T434 358Q426 266 415 198T382 84T322 16T224 -7Q180 -7 151 6T103 48T78 117T70 215Q71 247 73 282T78 358Q86 446 97 511T130 620T190 685T286 707Q331 707 360 694T408 653T433 586T441 491Z" />
<glyph unicode="1" glyph-name="one" horiz-adv-x="470" d="M80 0L86 75H207L255 620L119 569L126 650L252 700H347L292 75H391L385 0H80Z" />
<glyph unicode="2" glyph-name="two" horiz-adv-x="470" d="M412 552Q412 505 406 472T388 409T356 351T309 285L152 74H381L375 0H55L62 88L232 316Q257 350 275 374T304 422T321 475T327 548Q327 586 310 610T250 634Q218 634 184 628T126 617L133 691Q137 692
149 694T179 700T216 705T256 707Q412 707 412 552Z" />
<glyph unicode="3" glyph-name="three" horiz-adv-x="470" d="M381 229Q381 105 334 49T193 -7Q175 -7 154 -5T113 1T80 6T63 10L70 83Q79 81 93 78T126 73T163 68T198 66Q246 66 270 110T295 232Q295 280 280 303T219 327H137L143 400H215Q249 400 268 417T297
456T309 502T312 539Q312 590 298 612T246 634Q213 634 179 628T121 617L128 690Q132 691 144 693T174 699T211 704T250 707Q283 707 310 700T356 675T386 628T397 554Q397 476 376 430T306 367Q326 366 340 355T363 325T376 282T381 229Z" />
<glyph unicode="4" glyph-name="four" horiz-adv-x="470" d="M355 156L342 0H257L270 156H72L80 242L219 700H300L164 229H277L296 457H381L362 229H432L425 156H355Z" />
<glyph unicode="5" glyph-name="five" horiz-adv-x="470" d="M224 627L206 421H226Q273 421 305 411T356 380T383 330T391 261Q391 128 348 61T199 -7Q161 -7 130 -1T75 10L82 83Q95 80 131 73T209 66Q261 66 282 116T304 251Q304 307 286 327T225 348H115L146
700H411L404 627H224Z" />
<glyph unicode="6" glyph-name="six" horiz-adv-x="470" d="M424 292Q424 221 414 166T380 72T318 13T223 -7Q188 -7 161 1T116 35T88 105T78 222Q78 255 80 294T86 380Q95 483 112 547T158 646T227 694T322 707Q334 707 347 706T374 702T399 697T417 692L411
621Q391 626 365 631T306 637Q277 637 256 630T219 598T193 530T174 413Q191 424 217 434T282 444Q325 444 352 434T396 404T418 356T424 292ZM269 372Q231 372 205 361T167 345Q163 299 162 264T160 200Q160 156 164 130T178 89T200 70T229 65Q289 65 313 122T338
284Q338 330 324 351T269 372Z" />
<glyph unicode="7" glyph-name="seven" horiz-adv-x="470" d="M194 0H105L326 625H104L111 700H416L407 603L194 0Z" />
<glyph unicode="8" glyph-name="eight" horiz-adv-x="470" d="M346 233Q346 260 341 279T321 311T283 329T220 335Q198 324 183 311T157 279T142 231T137 161Q137 106 160 86T230 65Q266 65 289 76T324 110T341 163T346 233ZM362 548Q362 592 344 613T280 635Q223
635 201 599T178 490Q178 439 201 418T288 396Q310 404 324 420T346 457T358 501T362 548ZM431 230Q431 173 420 129T385 55T321 9T224 -7Q135 -7 94 34T52 161Q52 213 61 247T84 305T117 341T155 362Q124 378 109 414T94 494Q94 556 108 597T148 662T209 697T286
707Q319 707 348 700T398 674T432 625T445 549Q445 517 442 490T428 441T400 401T353 370Q395 360 413 321T431 230Z" />
<glyph unicode="9" glyph-name="nine" horiz-adv-x="470" d="M84 421Q84 557 131 632T280 707Q319 707 347 699T393 668T421 602T430 491Q430 422 421 320Q412 217 396 153T354 54T288 6T195 -7Q183 -7 170 -6T143 -2T118 3T100 8L107 81Q126 76 152 71T211 65Q237
65 256 72T290 103T315 170T333 286Q316 275 289 266T225 256Q185 256 158 267T114 300T91 351T84 421ZM238 328Q275 328 301 338T339 354Q343 400 345 436T347 501Q347 545 343 571T329 611T306 630T274 635Q217 635 193 578T169 417Q169 371 183 350T238 328Z"
/>
<glyph unicode=":" glyph-name="colon" horiz-adv-x="230" d="M55 0L63 100H163L155 0H55ZM89 400L98 500H198L189 400H89Z" />
<glyph unicode=";" glyph-name="semicolon" horiz-adv-x="230" d="M70 -140H2L55 0L63 100H163L155 0L70 -140ZM89 400L98 500H198L189 400H89Z" />
<glyph unicode="&lt;" glyph-name="less" horiz-adv-x="550" d="M99 280L108 385L504 564L496 470L174 334L472 197L464 105L99 280Z" />
<glyph unicode="=" glyph-name="equal" horiz-adv-x="550" d="M90 175L96 250H476L470 175H90ZM107 375L114 450H494L487 375H107Z" />
<glyph unicode="&gt;" glyph-name="greater" horiz-adv-x="550" d="M84 105L92 201L420 338L116 474L124 564L488 385L479 280L84 105Z" />
<glyph unicode="?" glyph-name="question" horiz-adv-x="360" d="M94 0L102 100H202L194 0H94ZM361 530Q359 506 355 489T342 453T317 414T272 364L211 300L204 208H119L129 329L195 400Q222 430 238 448T264 483T276 516T279 562Q279 604 258 619T202 634Q171
634 137 629T79 618L85 692Q95 694 108 697T137 702T169 705T198 707Q236 707 266 701T318 678T351 635T363 567Q363 561 363 550T361 530Z" />
<glyph unicode="@" glyph-name="at" horiz-adv-x="815" d="M503 472Q497 474 487 475T466 477Q441 477 418 471T376 446T347 393T336 302Q336 274 341 257T354 230T375 217T402 214Q425 214 440 220T466 236T480 258T486 281L503 472ZM755 401Q749 335 740 283T712
193T663 136T585 116Q573 116 558 120T531 134T509 157T497 191Q481 171 449 158T375 144Q353 144 332 150T294 174T267 222T256 298Q256 375 274 423T323 498T396 534T485 544Q507 544 535 540T586 530L562 251Q561 242 560 230T559 217Q559 203 567 192T592 181Q612
181 625 196T647 240T662 309T672 401Q674 424 675 443T676 479Q676 527 666 558T631 606T562 629T453 636Q378 636 330 623T253 576T210 487T188 345Q186 319 185 296T183 252Q183 201 192 166T226 108T293 75T399 64Q417 64 440 65T485 69T527 73T557 76L551
5Q538 3 519 1T478 -3T434 -6T393 -7Q312 -7 257 7T167 53T117 135T101 257Q101 277 102 299T105 345Q114 451 135 520T198 631T302 690T459 707Q535 707 591 698T685 662T740 589T758 468Q758 437 755 401Z" />
<glyph unicode="A" glyph-name="A" horiz-adv-x="500" d="M295 634L181 252H346L295 634ZM378 0L355 177H158L104 0H15L243 700H358L465 0H378Z" />
<glyph unicode="B" glyph-name="B" horiz-adv-x="512" d="M370 204Q371 213 371 220T372 236Q372 285 352 308T284 332H191L168 71Q182 70 198 69Q212 68 227 67T259 66Q279 66 297 71T331 91T356 133T370 204ZM383 517Q384 526 384 534T385 550Q385 595 367 615T300
635Q264 635 241 632Q228 630 217 629L197 404H280Q295 404 311 407T342 421T368 454T383 517ZM459 201Q454 141 438 101T396 37T331 3T244 -7Q212 -7 182 -7T128 -4Q100 -2 75 0L136 700Q164 702 191 704Q214 706 242 706T294 707Q334 707 366 698T422 670T458
622T471 551Q471 508 463 478T441 426T411 393T377 373Q391 368 405 359T432 333T453 292T461 234Q461 229 461 218T459 201Z" />
<glyph unicode="C" glyph-name="C" horiz-adv-x="423" d="M368 10Q360 8 346 5T316 0T284 -5T256 -7Q212 -7 179 4T124 42T91 117T80 237Q80 291 86 361Q96 472 113 539T160 644T230 694T330 707Q340 707 354 705T383 701T410 696T428 691L421 617Q397 623 365
627T306 632Q279 632 258 623T221 584T194 500T174 354Q174 348 173 329T170 289T168 249T167 226Q167 175 173 144T191 96T220 74T258 68Q289 68 322 73T375 83L368 10Z" />
<glyph unicode="D" glyph-name="D" horiz-adv-x="526" d="M392 354Q398 422 398 468Q398 520 392 552T375 603T348 627T314 634Q300 634 284 634T252 632Q234 631 217 630L168 70Q183 69 200 68Q214 67 230 67T263 66Q286 66 306 80T343 127T372 216T392 354ZM482
361Q472 249 454 178T408 65T340 9T248 -7Q219 -7 189 -7T132 -4Q102 -2 75 0L136 700Q163 702 191 704Q215 706 243 706T298 707Q341 707 376 698T435 662T473 588T487 463Q487 440 486 415T482 361Z" />
<glyph unicode="E" glyph-name="E" horiz-adv-x="468" d="M75 0L136 700H464L457 627H216L196 398H412L406 325H190L168 73H409L403 0H75Z" />
<glyph unicode="F" glyph-name="F" horiz-adv-x="458" d="M216 627L195 388H411L405 315H189L162 0H75L136 700H464L457 627H216Z" />
<glyph unicode="G" glyph-name="G" horiz-adv-x="495" d="M420 10Q380 2 342 -2T262 -7Q216 -7 182 4T125 42T91 117T80 237Q80 291 86 361Q96 472 115 539T165 644T242 694T348 707Q360 707 375 706T406 702T436 696T459 691L453 619Q421 625 389 629T324 634Q292
634 268 625T225 585T195 500T174 354Q174 348 173 329T170 287T168 247T167 224Q167 173 173 142T191 94T221 72T263 66Q280 66 301 68T342 73L362 295H273L280 368H452L420 10Z" />
<glyph unicode="H" glyph-name="H" horiz-adv-x="550" d="M368 0L396 322H190L162 0H75L136 700H223L196 396H402L429 700H516L455 0H368Z" />
<glyph unicode="I" glyph-name="I" horiz-adv-x="317" d="M35 0L41 73H111L159 627H89L96 700H323L316 627H246L198 73H268L262 0H35Z" />
<glyph unicode="J" glyph-name="J" horiz-adv-x="400" d="M331 251Q324 170 311 120T274 41T216 3T131 -7Q122 -7 109 -6T82 -3T52 1T25 5L31 78Q42 76 56 75T86 72T113 69T132 68Q159 68 178 74T210 98T231 152T244 244L277 627H116L123 700H371L331 251V251Z" />
<glyph unicode="K" glyph-name="K" horiz-adv-x="492" d="M356 0L226 321L184 261L162 0H75L136 700H223L196 393L410 700H503L286 394L452 0H356Z" />
<glyph unicode="L" glyph-name="L" horiz-adv-x="410" d="M75 0L136 700H223L168 76H391L385 0H75Z" />
<glyph unicode="M" glyph-name="M" horiz-adv-x="630" d="M454 0L508 628L365 235H282L209 628L155 0H75L136 700H277L336 342L460 700H596L535 0H454Z" />
<glyph unicode="N" glyph-name="N" horiz-adv-x="547" d="M309 0L210 626L156 0H75L136 700H278L377 74L432 700H513L452 0H309Z" />
<glyph unicode="O" glyph-name="O" horiz-adv-x="548" d="M414 353Q417 388 419 417T421 473Q421 519 415 550T397 599T365 626T319 634Q286 634 262 621T221 576T193 490T174 353Q174 347 173 330T171 294T169 259T168 238Q168 144 192 105T269 66Q303 66 327
80T368 129T396 217T414 353ZM504 358Q496 266 481 198T439 84T370 16T263 -7Q211 -7 176 9T120 59T90 143T81 261Q81 266 81 279T83 309T85 339T86 358Q94 446 108 511T149 620T218 685T325 707Q427 707 468 646T509 461Q509 437 508 412T504 358Z" />
<glyph unicode="P" glyph-name="P" horiz-adv-x="500" d="M393 488Q394 499 394 509T395 529Q395 583 376 609T311 635Q269 635 243 632Q228 630 217 629L192 347H286Q307 347 325 353T357 376T380 420T393 488ZM485 529Q485 521 484 506T482 482Q478 430 465
391T426 326T362 287T269 274H185L162 0H75L136 700Q161 702 189 704Q213 706 243 706T305 707Q354 707 388 694T443 658T475 601T485 529Z" />
<glyph unicode="Q" glyph-name="Q" horiz-adv-x="548" d="M504 358Q492 226 464 143T378 22L493 0L485 -84L263 -7Q211 -7 176 9T120 59T90 143T81 261Q81 266 81 279T83 309T85 339T86 358Q94 446 108 511T149 620T218 685T325 707Q427 707 468 646T509 461Q509
437 508 412T504 358ZM414 353Q417 388 419 417T421 473Q421 519 415 550T397 599T365 626T319 634Q286 634 262 621T221 576T193 490T174 353Q174 347 173 330T171 294T169 259T168 238Q168 144 192 105T269 66Q303 66 327 80T368 129T396 217T414 353Z" />
<glyph unicode="R" glyph-name="R" horiz-adv-x="520" d="M482 503Q474 425 448 374T365 303L475 0H381L280 290H187L162 0H75L136 700Q161 702 189 704Q213 706 243 706T305 707Q354 707 388 695T443 661T474 607T484 536Q484 528 484 520T482 503ZM392 496Q393
507 393 516T394 534Q394 587 376 611T311 635Q269 635 243 632Q228 630 217 629L193 363H287Q308 363 325 368T356 388T379 429T392 496Z" />
<glyph unicode="S" glyph-name="S" horiz-adv-x="434" d="M390 237Q390 170 377 123T338 48T271 6T175 -7Q145 -7 114 -3T57 9L64 83Q87 77 117 72T188 66Q247 66 273 105T300 225Q300 251 296 268T282 297T260 314T229 325Q159 340 125 376T91 484Q91 546 106
589T150 658T217 695T303 707Q332 707 361 702T411 690L404 617Q379 623 350 628T290 634Q268 634 248 627T213 602T189 557T180 490Q180 450 195 433T249 408Q281 401 307 390T351 359T380 310T390 237Z" />
<glyph unicode="T" glyph-name="T" horiz-adv-x="425" d="M300 624L246 0H159L213 624H59L66 700H461L454 624H300Z" />
<glyph unicode="U" glyph-name="U" horiz-adv-x="535" d="M461 185Q452 83 400 38T257 -7Q220 -7 189 2T134 32T98 84T85 158Q85 166 85 177T87 195L131 700H218L173 187Q172 175 172 166T171 152Q171 107 196 87T263 66Q308 66 337 89T372 166L419 700H506L461 185Z" />
<glyph unicode="V" glyph-name="V" horiz-adv-x="473" d="M281 0H162L86 700H174L230 88L403 700H489L281 0Z" />
<glyph unicode="W" glyph-name="W" horiz-adv-x="604" d="M495 0H359L318 304L219 0H89L116 700H193L166 55L285 405H367L429 55L517 700H590L495 0Z" />
<glyph unicode="X" glyph-name="X" horiz-adv-x="496" d="M355 0L263 270L121 0H25L226 362L101 700H194L279 457L407 700H502L314 363L451 0H355Z" />
<glyph unicode="Y" glyph-name="Y" horiz-adv-x="491" d="M307 325L279 0H189L217 325L71 700H165L271 409L429 700H522L307 325Z" />
<glyph unicode="Z" glyph-name="Z" horiz-adv-x="436" d="M131 74H377L371 0H35L42 88L346 626H112L119 700H442L434 612L131 74Z" />
<glyph unicode="[" glyph-name="bracketleft" horiz-adv-x="325" d="M64 -120L146 820H336L330 745H220L151 -45H261L254 -120H64Z" />
<glyph unicode="\" glyph-name="backslash" horiz-adv-x="325" d="M65 810H144L300 -110H221L65 810Z" />
<glyph unicode="]" glyph-name="bracketright" horiz-adv-x="325" d="M29 -120L36 -45H146L215 745H105L111 820H301L219 -120H29Z" />
<glyph unicode="^" glyph-name="asciicircum" horiz-adv-x="487" d="M379 420L300 700L161 420H71L245 760H359L468 420H379Z" />
<glyph unicode="_" glyph-name="underscore" horiz-adv-x="510" d="M-21 -170L-15 -95H488L482 -170H-21Z" />
<glyph unicode="`" glyph-name="grave" horiz-adv-x="303" d="M224 580L99 715H208L300 580H224Z" />
<glyph unicode="a" glyph-name="a" horiz-adv-x="498" d="M74 228Q81 302 98 355T144 441T215 491T314 507Q328 507 345 505T380 500T414 493T442 485L410 136Q410 134 409 126T408 103Q408 65 447 65L442 0H423Q391 0 369 15T337 62Q317 32 284 13T199 -7Q129
-7 100 39T71 170Q71 198 74 228ZM221 65Q247 65 266 74T298 99T319 133T328 172L351 431Q341 433 328 434T297 435Q158 435 158 163Q158 113 172 89T221 65Z" />
<glyph unicode="b" glyph-name="b" horiz-adv-x="499" d="M448 282Q441 201 426 146T384 57T314 8T210 -7Q175 -7 139 -4T70 5L131 700H216L194 455Q214 478 243 492T314 507Q389 507 419 461T450 334Q450 322 450 309T448 282ZM294 435Q265 435 245 422T211 389T190
346T181 300L160 68Q184 65 227 65Q263 65 286 79T325 121T348 189T361 282Q363 296 363 308T363 332Q363 384 348 409T294 435Z" />
<glyph unicode="c" glyph-name="c" horiz-adv-x="404" d="M339 10Q315 3 286 -2T229 -7Q192 -7 163 0T114 27T84 83T73 179Q73 269 85 331T122 433T184 489T273 507Q298 507 329 502T381 491L375 416Q349 423 323 427T260 432Q238 432 222 423T194 392T175 333T162
240Q159 204 159 178Q159 142 164 121T178 88T200 72T229 68Q267 68 295 74T346 85L339 10Z" />
<glyph unicode="d" glyph-name="d" horiz-adv-x="504" d="M74 228Q81 302 97 355T142 441T214 491T317 507Q344 507 372 502L390 700H475L414 0H344L339 60Q316 31 284 12T204 -7Q135 -7 104 38T72 174Q72 187 72 200T74 228ZM226 65Q255 65 276 77T312 109T335
153T345 199L366 431Q355 433 339 434T300 435Q264 435 240 421T200 379T175 311T161 218Q160 205 160 193T159 170Q159 117 174 91T226 65Z" />
<glyph unicode="e" glyph-name="e" horiz-adv-x="456" d="M426 370Q426 282 373 243T231 204Q211 204 195 205T157 208V172Q157 138 163 117T180 84T204 69T231 65Q280 65 312 71T367 82L360 10Q348 7 332 4T299 -2T266 -5T235 -7Q199 -7 170 0T119 27T85 83T73
179Q73 269 86 331T126 433T189 489T274 507Q316 507 345 496T392 465T418 421T426 370ZM273 436Q251 436 233 428T200 402T177 353T162 277Q177 275 189 275T216 274Q286 274 316 295T346 366Q346 380 343 393T332 415T310 430T273 436Z" />
<glyph unicode="f" glyph-name="f" horiz-adv-x="306" d="M202 427L161 -43Q159 -71 151 -95T126 -137T86 -165T25 -175Q1 -175 -19 -174T-60 -170L-54 -99Q-38 -101 -16 -102T18 -103Q70 -103 75 -48L117 427H52L58 500H123L130 578Q142 707 268 707Q300 707
323 703T361 696L355 624Q340 628 321 631T275 635Q248 635 233 621T216 585L208 500H329L323 427H202Z" />
<glyph unicode="g" glyph-name="g" horiz-adv-x="504" d="M74 233Q81 307 97 359T143 444T215 492T317 507Q355 507 390 500T456 485L416 40Q409 -37 395 -82T357 -150T298 -180T212 -187Q189 -187 156 -183T98 -173L105 -99Q116 -101 130 -104T161 -109T193 -112T223
-114Q248 -114 266 -110T297 -91T318 -51T330 20L333 59Q311 34 280 19T204 3Q135 3 104 45T72 178Q72 191 72 204T74 233ZM226 75Q256 75 277 87T313 118T336 159T346 203L366 430Q355 432 339 433T300 435Q264 435 240 422T200 381T175 315T161 223Q160 210 160
199T159 176Q159 124 174 100T226 75Z" />
<glyph unicode="h" glyph-name="h" horiz-adv-x="506" d="M70 0L131 700H216L195 455Q216 479 244 493T314 507Q392 507 421 470T450 363Q450 353 450 342T448 320L421 0H336L363 320Q364 328 365 339T366 358Q366 392 351 413T292 435Q264 435 244 422T211 389T190
344T181 296L155 0H70Z" />
<glyph unicode="i" glyph-name="i" horiz-adv-x="245" d="M118 610L126 700H221L213 610H118ZM70 0L113 500H198L155 0H70Z" />
<glyph unicode="j" glyph-name="j" horiz-adv-x="245" d="M151 -43Q148 -71 140 -95T115 -137T75 -165T15 -175Q-8 -175 -29 -174T-70 -170L-64 -99Q-48 -101 -26 -102T8 -103Q60 -103 65 -48L113 500H198L151 -43ZM118 610L126 700H221L213 610H118Z" />
<glyph unicode="k" glyph-name="k" horiz-adv-x="464" d="M322 0L206 248L173 214L155 0H70L131 700H216L183 328L346 500H455L269 307L419 0H322Z" />
<glyph unicode="l" glyph-name="l" horiz-adv-x="270" d="M215 5Q204 3 189 0T154 -3Q140 -3 126 1T102 16T85 45T78 90Q78 95 78 105T80 122L131 700H216L167 137Q166 127 165 117T164 103Q164 85 170 78T194 70Q202 70 209 72T221 75L215 5Z" />
<glyph unicode="m" glyph-name="m" horiz-adv-x="730" d="M70 0L113 500H183L184 446Q204 475 232 491T304 507Q354 507 381 490T420 440Q440 472 470 489T549 507Q586 507 610 498T648 470T669 426T675 367Q675 343 672 310L646 0H561L588 320Q589 329 590 343T591
365Q591 396 579 415T527 435Q499 435 481 422T451 390T434 346T426 299L401 0H316L343 320Q344 329 345 343T346 365Q346 396 334 415T282 435Q254 435 235 422T205 389T188 344T180 296L155 0H70Z" />
<glyph unicode="n" glyph-name="n" horiz-adv-x="506" d="M70 0L113 500H183L184 442Q206 472 237 489T314 507Q392 507 421 470T450 363Q450 353 450 342T448 320L421 0H336L363 320Q364 328 365 339T366 358Q366 392 351 413T292 435Q264 435 244 422T210 389T189
344T180 296L155 0H70Z" />
<glyph unicode="o" glyph-name="o" horiz-adv-x="510" d="M459 316Q459 150 408 72T244 -7Q204 -7 173 2T119 35T86 98T74 196Q74 358 124 432T289 507Q459 507 459 316ZM369 245Q372 284 372 314Q372 382 352 409T283 437Q253 437 232 427T198 395T176 335T163
245Q160 215 160 190Q160 122 181 93T250 63Q306 63 333 105T369 245Z" />
<glyph unicode="p" glyph-name="p" horiz-adv-x="499" d="M55 -170L113 500H183L185 444Q206 471 237 489T314 507Q389 507 419 461T450 334Q450 322 450 304T447 272Q440 196 426 143T384 56T314 8T210 -7Q196 -7 182 -6T154 -3L140 -170H55ZM294 435Q261 435
239 419T205 378T186 326T178 276L160 68Q183 65 227 65Q261 65 284 78T322 116T347 181T360 272Q362 286 362 303T363 332Q363 384 348 409T294 435Z" />
<glyph unicode="q" glyph-name="q" horiz-adv-x="504" d="M74 228Q81 302 97 355T143 441T214 491T317 507Q357 507 395 500T456 485L399 -170H314L333 53Q311 27 280 10T204 -7Q133 -7 102 37T71 171Q71 198 74 228ZM226 65Q256 65 277 78T312 112T335 156T346
203L366 430Q355 432 339 433T300 435Q264 435 240 421T200 379T175 311T161 218Q160 205 160 193T159 170Q159 117 174 91T226 65Z" />
<glyph unicode="r" glyph-name="r" horiz-adv-x="338" d="M339 414Q326 417 310 419T279 422Q254 422 236 409T206 374T188 327T179 276L155 0H70L113 500H183L185 438Q205 468 231 487T294 507Q312 507 323 505T346 501L339 414Z" />
<glyph unicode="s" glyph-name="s" horiz-adv-x="402" d="M355 165Q355 76 312 35T173 -7Q130 -7 101 -2T54 8L61 81Q70 79 84 77T114 72T149 67T186 65Q210 65 225 74T250 96T262 125T266 155Q266 182 254 195T209 217Q140 233 110 265T80 343Q80 433 127 470T259
507Q296 507 324 502T367 492L361 419Q349 422 337 425T312 430T284 433T248 435Q224 435 209 428T184 410T172 384T168 354Q168 330 182 317T227 297Q297 283 326 250T355 165Z" />
<glyph unicode="t" glyph-name="t" horiz-adv-x="321" d="M202 425L177 142Q176 134 176 125T175 113Q175 106 177 98T184 82T197 71T220 66Q241 66 258 69T287 75L281 5Q271 2 246 -2T194 -6Q137 -6 113 25T89 106Q89 113 90 124T92 145L117 425H52L58 500H123L134
620H219L208 500H324L318 425H202Z" />
<glyph unicode="u" glyph-name="u" horiz-adv-x="491" d="M193 500L165 170Q164 159 164 150T163 131Q163 102 175 84T227 65Q256 65 276 79T308 115T327 162T335 211L359 500H444L401 0H331L329 53Q309 25 280 9T207 -7Q169 -7 145 2T106 29T85 72T79 130Q79
142 79 154T81 180L108 500H193Z" />
<glyph unicode="v" glyph-name="v" horiz-adv-x="462" d="M283 0H160L68 500H157L228 69L371 500H460L283 0Z" />
<glyph unicode="w" glyph-name="w" horiz-adv-x="670" d="M521 0H390L350 271L258 0H130L73 500H160L202 64L322 410H407L460 64L579 500H663L521 0Z" />
<glyph unicode="x" glyph-name="x" horiz-adv-x="464" d="M320 0L241 183L125 0H30L197 258L85 500H183L253 337L355 500H449L293 262L419 0H320Z" />
<glyph unicode="y" glyph-name="y" horiz-adv-x="463" d="M269 -44Q259 -73 248 -97T221 -139T185 -165T133 -175Q117 -175 102 -173T77 -169L83 -96Q94 -98 107 -99T135 -100Q150 -100 160 -89T179 -55L200 0H180L68 500H158L239 87L372 500H461L269 -44Z" />
<glyph unicode="z" glyph-name="z" horiz-adv-x="403" d="M135 74H339L333 0H35L41 80L287 426H92L98 500H386L378 411L135 74Z" />
<glyph unicode="{" glyph-name="braceleft" horiz-adv-x="325" d="M182 -19Q182 -39 192 -47T224 -55Q234 -55 242 -54T255 -52L249 -120Q241 -122 228 -123T204 -125Q150 -125 128 -99T105 -22Q105 -17 105 -6T107 12L121 181Q122 189 123 201T124 218Q124 244
117 259T100 282T76 292T50 295L60 405Q74 405 89 408T116 421T137 449T149 499L167 698Q170 731 177 755T197 794T232 817T287 825Q297 825 310 824T331 820L325 752Q320 753 313 754T295 755Q272 755 260 746T246 713L225 469Q222 436 210 414T182 378T146 357T109
347Q125 345 142 338T173 317T196 284T205 241Q205 239 204 229T202 211L185 17Q184 6 183 -5T182 -19Z" />
<glyph unicode="|" glyph-name="bar" horiz-adv-x="290" d="M85 -110L165 810H245L165 -110H85Z" />
<glyph unicode="}" glyph-name="braceright" horiz-adv-x="325" d="M305 295Q291 295 277 292T250 279T228 251T216 201L199 2Q196 -34 188 -58T166 -97T130 -118T79 -125Q69 -125 56 -124T34 -120L40 -52Q45 -53 53 -54T71 -55Q95 -55 106 -46T119 -13L141 231Q144
263 156 285T184 321T220 343T256 353Q241 356 224 363T194 383T171 414T162 457Q162 460 162 470T164 489L181 689Q182 700 183 709T184 721Q184 755 142 755Q132 755 124 754T110 752L116 820Q124 822 138 823T162 825Q216 825 238 799T261 722Q261 719 261 714T260
701T259 688T258 678L244 519Q243 511 242 499T241 482Q241 457 248 442T265 419T289 408T315 405L305 295Z" />
<glyph unicode="~" glyph-name="asciitilde" horiz-adv-x="510" d="M105 344Q141 365 164 371T209 377Q229 377 246 371T280 358T314 344T351 338Q377 338 401 349T447 374L440 296Q417 281 391 272T336 263Q315 263 298 269T265 282T232 296T194 302Q168 302
144 291T98 266L105 344Z" />
<glyph unicode="&#xa0;" glyph-name="uni00A0" horiz-adv-x="260" />
<glyph unicode="&#xa1;" glyph-name="exclamdown" horiz-adv-x="250" d="M208 500L199 400H99L108 500H208ZM183 292L140 -200H55L98 292H183Z" />
<glyph unicode="&#xa2;" glyph-name="cent" horiz-adv-x="470" d="M218 -100L226 -6Q197 -3 175 6T137 37T114 92T106 178Q106 259 116 318T146 416T197 477T270 504L279 600H359L350 502Q367 500 384 497T414 490L408 415Q382 422 356 426T293 431Q271 431 255
422T227 391T208 332T195 239Q192 203 192 177Q192 141 197 120T211 87T233 71T262 67Q300 67 328 73T379 84L372 9Q340 -1 306 -5L298 -100H218Z" />
<glyph unicode="&#xa3;" glyph-name="sterling" horiz-adv-x="470" d="M248 413H377L370 340H242L218 73H417L411 0H56L62 73H131L155 340H85L92 413H162L167 469Q174 543 187 589T223 662T281 697T366 707Q383 707 410 703T461 694L455 620Q445 622 432 624T406
628T383 631T366 632Q336 632 317 627T285 606T266 558T254 476L248 413Z" />
<glyph unicode="&#xa4;" glyph-name="currency" horiz-adv-x="570" d="M442 106Q414 85 379 75T305 65Q223 65 167 106L108 47L52 103L115 166Q101 192 93 225T85 300Q85 341 93 374T115 433L52 497L108 553L167 494Q225 535 305 535Q344 535 379 525T442 494L502
553L558 497L495 433Q509 407 517 374T525 300Q525 259 517 226T495 166L558 103L502 47L442 106ZM438 300Q438 341 428 371T400 423T358 454T305 465Q277 465 253 455T210 423T182 372T172 300Q172 260 182 229T210 177T252 146T305 135Q333 135 357 145T400 177T428
229T438 300Z" />
<glyph unicode="&#xa5;" glyph-name="yen" horiz-adv-x="470" d="M279 115L269 0H179L189 115H59L65 190H195L202 265H72L78 340H206L71 700H165L263 427L408 700H501L301 340H428L422 265H292L285 190H415L409 115H279Z" />
<glyph unicode="&#xa6;" glyph-name="brokenbar" horiz-adv-x="290" d="M85 -110L116 250H196L165 -110H85ZM134 450L165 810H245L214 450H134Z" />
<glyph unicode="&#xa7;" glyph-name="section" horiz-adv-x="470" d="M102 328Q102 373 122 408T176 461Q157 475 148 500T139 549Q139 593 153 623T191 672T249 699T320 707Q359 707 385 701T426 690L420 618Q407 621 396 624T371 630T342 634T306 636Q281 636
265 628T240 607T227 580T223 555Q223 504 281 494Q316 488 340 476T380 447T401 410T408 368Q408 319 386 288T331 238Q353 224 362 201T372 151Q372 108 359 78T323 29T266 2T190 -7Q151 -7 125 -1T84 9L91 82Q116 75 140 70T204 64Q241 64 264 88T288 144Q288
197 230 206Q159 218 131 248T102 328ZM322 364Q322 390 307 407T242 433Q230 429 221 419T204 396T192 367T188 335Q188 309 203 293T264 268Q273 272 283 282T302 305T316 334T322 364Z" />
<glyph unicode="&#xa8;" glyph-name="dieresis" horiz-adv-x="355" d="M277 595L284 675H369L362 595H277ZM77 595L84 675H169L162 595H77Z" />
<glyph unicode="&#xa9;" glyph-name="copyright" horiz-adv-x="800" d="M491 163Q482 161 463 158T430 155Q400 155 378 163T342 194T320 255T312 356Q312 417 320 454T344 511T383 538T436 545Q442 545 450 544T466 542T481 540T491 537V489Q477 492 460 493T428
495Q413 495 402 492T384 474T373 431T369 352Q369 300 373 271T384 227T403 209T429 205Q446 205 463 207T491 211V163ZM735 350Q735 267 719 201T666 88T570 18T425 -7Q340 -7 279 17T180 87T123 199T105 350Q105 433 123 499T179 611T278 682T425 707Q511 707
570 682T666 611T719 499T735 350ZM658 350Q658 416 649 469T613 560T542 618T425 639Q354 639 307 619T233 562T194 471T182 350Q182 284 193 231T232 140T307 82T425 61Q496 61 541 81T613 139T648 230T658 350Z" />
<glyph unicode="&#xaa;" glyph-name="ordfeminine" horiz-adv-x="395" d="M90 497Q101 608 143 657T270 707Q281 707 294 706T320 702T345 696T366 690L342 412V407Q342 379 371 379L367 326H352Q300 326 285 367Q271 347 248 334T189 321Q135 321 112 354T88
453Q88 464 88 474T90 497ZM205 379Q239 379 256 401T276 453L293 647Q286 648 278 648T258 649Q208 649 183 600T158 446Q158 408 168 394T205 379ZM57 0L63 75H314L308 0H57Z" />
<glyph unicode="&#xab;" glyph-name="guillemotleft" horiz-adv-x="465" d="M162 92L91 299L198 506H265L183 299L228 92H162ZM322 92L251 299L358 506H425L343 299L388 92H322Z" />
<glyph unicode="&#xac;" glyph-name="logicalnot" horiz-adv-x="605" d="M454 106L468 275H79L85 350H560L539 106H454Z" />
<glyph unicode="&#xad;" glyph-name="uni00AD" horiz-adv-x="495" d="M99 275L105 350H430L424 275H99Z" />
<glyph unicode="&#xae;" glyph-name="registered" horiz-adv-x="800" d="M735 350Q735 267 719 201T666 88T570 18T425 -7Q340 -7 279 17T180 87T123 199T105 350Q105 433 123 499T179 611T278 682T425 707Q511 707 570 682T666 611T719 499T735 350ZM658 350Q658
416 649 469T613 560T542 618T425 639Q354 639 307 619T233 562T194 471T182 350Q182 284 193 231T232 140T307 82T425 61Q496 61 541 81T613 139T648 230T658 350ZM530 435Q530 393 517 365T475 324L550 159H489L422 316H384V159H330V544Q343 545 358 546Q371
547 387 547T420 547Q483 547 506 517T530 435ZM475 431Q475 471 466 486T427 501Q416 501 408 501T394 500Q388 499 384 499V364H427Q438 364 447 366T462 375T471 395T475 431Z" />
<glyph unicode="&#xaf;" glyph-name="overscore" horiz-adv-x="325" d="M77 605L84 675H339L332 605H77Z" />
<glyph unicode="&#xb0;" glyph-name="degree" horiz-adv-x="363" d="M298 567Q298 597 283 620T227 643Q202 643 185 634T158 609T144 574T140 537Q140 506 155 481T210 456Q236 456 252 466T279 493T293 528T298 567ZM372 571Q372 535 363 503T333 446T282 407T205
392Q168 392 142 402T99 432T75 476T67 529Q67 565 76 597T105 653T156 691T232 705Q270 705 296 695T340 667T364 625T372 571Z" />
<glyph unicode="&#xb1;" glyph-name="plusminus" horiz-adv-x="550" d="M329 275L317 143H237L249 275H99L105 350H255L269 508H349L335 350H485L479 275H329ZM75 0L81 75H461L455 0H75Z" />
<glyph unicode="&#xb2;" glyph-name="twosuperior" horiz-adv-x="410" d="M73 205L80 276L205 433Q225 459 238 478T258 514T269 549T272 593Q272 616 260 628T217 641Q193 641 168 637T124 629L129 694Q132 694 141 696T164 700T192 703T222 705Q285 705 315
674T346 588Q346 561 342 540T330 500T307 459T273 410L161 270H325L319 205H73Z" />
<glyph unicode="&#xb3;" glyph-name="threesuperior" horiz-adv-x="410" d="M331 341Q324 261 286 231T186 200Q172 200 156 201T126 205T102 208T88 211L94 275Q107 272 134 268T187 263Q258 263 258 371Q258 404 246 421T200 438H143L148 501H198Q225 501 239
512T261 539T269 570T270 595Q270 624 257 633T218 642Q193 642 170 638T129 630L134 694Q137 695 146 696T169 700T197 703T226 705Q250 705 271 700T309 683T334 649T344 594Q344 538 327 511T276 472Q304 466 318 439T333 370Q333 365 333 356T331 341Z" />
<glyph unicode="&#xb4;" glyph-name="acute" horiz-adv-x="303" d="M85 580L201 715H310L171 580H85Z" />
<glyph unicode="&#xb5;" glyph-name="mu" horiz-adv-x="491" d="M162 132Q162 103 174 84T227 65Q256 65 276 79T308 115T327 162T335 211L359 500H444L401 0H331L329 53Q309 25 280 9T207 -7Q190 -7 176 -5T150 1L135 -170H50L108 500H193L165 172Q164 163 163
149T162 132Z" />
<glyph unicode="&#xb6;" glyph-name="paragraph" horiz-adv-x="510" d="M425 -43Q422 -71 414 -95T390 -137T351 -165T293 -175Q270 -175 249 -174T208 -170L214 -99Q230 -101 252 -102T286 -103Q311 -103 326 -89T345 -48L411 700H491L425 -43ZM295 0H213L245
374H221Q196 374 173 379T131 400T102 443T91 514Q91 566 105 602T142 662T194 696T254 707Q274 707 293 707T326 704Q343 702 358 700L352 630Q332 632 314 634T280 636Q217 636 192 609T167 511Q167 483 183 464T232 444H333L295 0Z" />
<glyph unicode="&#xb7;" glyph-name="middot" horiz-adv-x="230" d="M77 260L86 360H186L177 260H77Z" />
<glyph unicode="&#xb8;" glyph-name="cedilla" horiz-adv-x="302" d="M44 -131Q58 -134 72 -135T98 -137Q119 -137 130 -131T141 -103Q141 -89 126 -83T63 -76L94 50H159L141 -27Q183 -32 200 -48T218 -97Q218 -151 185 -175T101 -200Q83 -200 68 -198T38 -193L44 -131Z" />
<glyph unicode="&#xb9;" glyph-name="onesuperior" horiz-adv-x="410" d="M101 205L107 271H195L227 629L127 591L133 662L225 700H308L270 271H342L336 205H101Z" />
<glyph unicode="&#xba;" glyph-name="ordmasculine" horiz-adv-x="416" d="M313 508Q316 537 316 560Q316 602 303 625T254 649Q205 649 187 598T168 459Q168 418 181 399T231 379Q254 379 268 387T292 410T305 450T313 508ZM388 558Q388 550 387 536T385 512Q380
455 369 419T339 360T292 330T226 321Q196 321 173 328T133 352T107 399T98 474Q98 595 135 651T259 707Q322 707 355 671T388 558ZM58 0L64 75H340L334 0H58Z" />
<glyph unicode="&#xbb;" glyph-name="guillemotright" horiz-adv-x="465" d="M232 92L314 299L270 506H335L406 299L299 92H232ZM72 92L154 299L110 506H175L246 299L139 92H72Z" />
<glyph unicode="&#xbc;" glyph-name="onequarter" horiz-adv-x="875" d="M91 205L97 271H185L217 629L117 591L123 662L215 700H298L260 271H332L326 205H91ZM745 117L734 0H660L671 117H524L530 191L631 495H700L599 181H676L689 324H763L750 181H800L795 117H745ZM308
-100H228L626 810H706L308 -100Z" />
<glyph unicode="&#xbd;" glyph-name="onehalf" horiz-adv-x="875" d="M91 205L97 271H185L217 629L117 591L123 662L215 700H298L260 271H332L326 205H91ZM557 0L564 71L689 228Q709 254 722 273T742 309T753 344T756 388Q756 411 744 423T701 436Q677 436 652
432T608 424L613 489Q616 489 625 491T648 495T676 498T706 500Q769 500 799 469T830 383Q830 356 826 335T814 295T791 254T757 205L645 65H809L803 0H557ZM313 -100H233L631 810H711L313 -100Z" />
<glyph unicode="&#xbe;" glyph-name="threequarters" horiz-adv-x="875" d="M338 341Q331 261 293 231T193 200Q179 200 163 201T133 205T109 208T95 211L101 275Q114 272 141 268T194 263Q265 263 265 371Q265 404 253 421T207 438H150L155 501H205Q232 501 246
512T268 539T276 570T277 595Q277 624 264 633T225 642Q200 642 177 638T136 630L141 694Q144 695 153 696T176 700T204 703T233 705Q257 705 278 700T316 683T341 649T351 594Q351 538 334 511T283 472Q311 466 325 439T340 370Q340 365 340 356T338 341ZM738
117L727 0H653L664 117H517L523 191L624 495H693L592 181H669L682 324H756L743 181H793L788 117H738ZM297 -100H217L615 810H695L297 -100Z" />
<glyph unicode="&#xbf;" glyph-name="questiondown" horiz-adv-x="360" d="M289 500L281 400H181L189 500H289ZM21 -37Q21 -18 24 0T38 39T65 84T111 137L172 200L179 292H264L254 171L188 101Q161 72 145 54T119 19T107 -16T104 -63Q104 -103 125 -118T182 -133Q213
-133 246 -128T305 -118L299 -191Q278 -196 246 -201T184 -207Q146 -207 116 -201T65 -178T33 -135T21 -66V-37Z" />
<glyph unicode="&#xc0;" glyph-name="Agrave" horiz-adv-x="500" d="M307 726L185 841H296L390 726H307ZM295 634L181 252H346L295 634ZM378 0L355 177H158L104 0H15L243 700H358L465 0H378Z" />
<glyph unicode="&#xc1;" glyph-name="Aacute" horiz-adv-x="500" d="M214 726L328 841H439L297 726H214ZM295 634L181 252H346L295 634ZM378 0L355 177H158L104 0H15L243 700H358L465 0H378Z" />
<glyph unicode="&#xc2;" glyph-name="Acircumflex" horiz-adv-x="500" d="M362 730L308 794L242 730H146L266 845H358L459 730H362ZM295 634L181 252H346L295 634ZM378 0L355 177H158L104 0H15L243 700H358L465 0H378Z" />
<glyph unicode="&#xc3;" glyph-name="Atilde" horiz-adv-x="500" d="M295 634L181 252H346L295 634ZM378 0L355 177H158L104 0H15L243 700H358L465 0H378ZM182 807Q206 826 228 833T271 840Q289 840 302 834T329 821T354 807T381 801Q407 801 425 810T464 837L458
764Q437 745 416 738T369 731Q350 731 337 737T311 750T287 764T259 770Q233 770 213 759T175 734L182 807Z" />
<glyph unicode="&#xc4;" glyph-name="Adieresis" horiz-adv-x="500" d="M295 634L181 252H346L295 634ZM378 0L355 177H158L104 0H15L243 700H358L465 0H378ZM361 735L368 815H453L446 735H361ZM161 735L168 815H253L246 735H161Z" />
<glyph unicode="&#xc5;" glyph-name="Aring" horiz-adv-x="500" d="M401 753Q396 700 362 672L465 0H378L355 177H158L104 0H15L235 676Q211 703 211 742Q211 790 238 822T314 855Q355 855 378 830T402 765Q402 762 402 759T401 753ZM295 634L181 252H346L295
634ZM343 763Q343 780 336 791T309 803Q285 803 277 785T268 747Q268 731 274 718T301 705Q326 705 333 720T343 754V763Z" />
<glyph unicode="&#xc6;" glyph-name="AE" horiz-adv-x="743" d="M380 0L375 177H177L105 0H15L313 700H719L712 627H443L450 398H687L681 325H453L461 73H684L678 0H380ZM208 254H373L364 627L208 254Z" />
<glyph unicode="&#xc7;" glyph-name="Ccedilla" horiz-adv-x="423" d="M158 -131Q172 -134 186 -135T212 -137Q233 -137 244 -131T255 -103Q255 -89 240 -83T177 -76L195 -1Q167 6 145 22T109 66T88 136T80 237Q80 291 86 361Q96 472 113 539T160 644T230 694T330
707Q340 707 354 705T383 701T410 696T428 691L421 617Q397 623 365 627T306 632Q279 632 258 623T221 584T194 500T174 354Q174 348 173 329T170 289T168 249T167 226Q167 175 173 144T191 96T220 74T258 68Q289 68 322 73T375 83L368 10Q351 5 318 0T259 -7L255
-27Q297 -32 314 -48T332 -97Q332 -151 299 -175T215 -200Q197 -200 182 -198T152 -193L158 -131Z" />
<glyph unicode="&#xc8;" glyph-name="Egrave" horiz-adv-x="468" d="M297 726L175 841H286L380 726H297ZM75 0L136 700H464L457 627H216L196 398H412L406 325H190L168 73H409L403 0H75Z" />
<glyph unicode="&#xc9;" glyph-name="Eacute" horiz-adv-x="468" d="M235 726L349 841H460L318 726H235ZM75 0L136 700H464L457 627H216L196 398H412L406 325H190L168 73H409L403 0H75Z" />
<glyph unicode="&#xca;" glyph-name="Ecircumflex" horiz-adv-x="468" d="M362 730L308 794L242 730H146L266 845H358L459 730H362ZM75 0L136 700H464L457 627H216L196 398H412L406 325H190L168 73H409L403 0H75Z" />
<glyph unicode="&#xcb;" glyph-name="Edieresis" horiz-adv-x="468" d="M75 0L136 700H464L457 627H216L196 398H412L406 325H190L168 73H409L403 0H75ZM363 735L370 815H455L448 735H363ZM163 735L170 815H255L248 735H163Z" />
<glyph unicode="&#xcc;" glyph-name="Igrave" horiz-adv-x="317" d="M223 726L101 841H212L306 726H223ZM35 0L41 73H111L159 627H89L96 700H323L316 627H246L198 73H268L262 0H35Z" />
<glyph unicode="&#xcd;" glyph-name="Iacute" horiz-adv-x="317" d="M114 726L228 841H339L197 726H114ZM35 0L41 73H111L159 627H89L96 700H323L316 627H246L198 73H268L262 0H35Z" />
<glyph unicode="&#xce;" glyph-name="Icircumflex" horiz-adv-x="317" d="M273 730L219 794L153 730H55L175 845H267L368 730H273ZM35 0L41 73H111L159 627H89L96 700H323L316 627H246L198 73H268L262 0H35Z" />
<glyph unicode="&#xcf;" glyph-name="Idieresis" horiz-adv-x="317" d="M35 0L41 73H111L159 627H89L96 700H323L316 627H246L198 73H268L262 0H35ZM271 735L278 815H363L356 735H271ZM71 735L78 815H163L156 735H71Z" />
<glyph unicode="&#xd0;" glyph-name="Eth" horiz-adv-x="536" d="M492 361Q482 249 464 178T418 65T350 9T258 -7Q229 -7 199 -7T142 -4Q112 -2 85 0L113 325H43L49 400H120L146 700Q173 702 201 704Q225 706 253 706T308 707Q351 707 386 698T445 662T483 588T497
463Q497 440 496 415T492 361ZM402 354Q408 422 408 468Q408 520 402 552T385 603T358 627T324 634Q310 634 294 634T262 632Q244 631 227 630L207 400H319L313 325H200L178 70Q193 69 210 68Q224 67 240 67T273 66Q296 66 316 80T353 127T382 216T402 354Z" />
<glyph unicode="&#xd1;" glyph-name="Ntilde" horiz-adv-x="547" d="M309 0L210 626L156 0H75L136 700H278L377 74L432 700H513L452 0H309ZM197 807Q221 826 243 833T286 840Q304 840 317 834T344 821T369 807T396 801Q422 801 440 810T479 837L473 764Q452 745
431 738T384 731Q365 731 352 737T326 750T302 764T274 770Q248 770 228 759T190 734L197 807Z" />
<glyph unicode="&#xd2;" glyph-name="Ograve" horiz-adv-x="548" d="M316 726L194 841H305L399 726H316ZM414 353Q417 388 419 417T421 473Q421 519 415 550T397 599T365 626T319 634Q286 634 262 621T221 576T193 490T174 353Q174 347 173 330T171 294T169 259T168
238Q168 144 192 105T269 66Q303 66 327 80T368 129T396 217T414 353ZM504 358Q496 266 481 198T439 84T370 16T263 -7Q211 -7 176 9T120 59T90 143T81 261Q81 266 81 279T83 309T85 339T86 358Q94 446 108 511T149 620T218 685T325 707Q427 707 468 646T509 461Q509
437 508 412T504 358Z" />
<glyph unicode="&#xd3;" glyph-name="Oacute" horiz-adv-x="548" d="M259 726L373 841H484L342 726H259ZM414 353Q417 388 419 417T421 473Q421 519 415 550T397 599T365 626T319 634Q286 634 262 621T221 576T193 490T174 353Q174 347 173 330T171 294T169 259T168
238Q168 144 192 105T269 66Q303 66 327 80T368 129T396 217T414 353ZM504 358Q496 266 481 198T439 84T370 16T263 -7Q211 -7 176 9T120 59T90 143T81 261Q81 266 81 279T83 309T85 339T86 358Q94 446 108 511T149 620T218 685T325 707Q427 707 468 646T509 461Q509
437 508 412T504 358Z" />
<glyph unicode="&#xd4;" glyph-name="Ocircumflex" horiz-adv-x="548" d="M387 730L333 794L267 730H171L291 845H383L484 730H387ZM414 353Q417 388 419 417T421 473Q421 519 415 550T397 599T365 626T319 634Q286 634 262 621T221 576T193 490T174 353Q174 347
173 330T171 294T169 259T168 238Q168 144 192 105T269 66Q303 66 327 80T368 129T396 217T414 353ZM504 358Q496 266 481 198T439 84T370 16T263 -7Q211 -7 176 9T120 59T90 143T81 261Q81 266 81 279T83 309T85 339T86 358Q94 446 108 511T149 620T218 685T325
707Q427 707 468 646T509 461Q509 437 508 412T504 358Z" />
<glyph unicode="&#xd5;" glyph-name="Otilde" horiz-adv-x="548" d="M414 353Q417 388 419 417T421 473Q421 519 415 550T397 599T365 626T319 634Q286 634 262 621T221 576T193 490T174 353Q174 347 173 330T171 294T169 259T168 238Q168 144 192 105T269 66Q303
66 327 80T368 129T396 217T414 353ZM504 358Q496 266 481 198T439 84T370 16T263 -7Q211 -7 176 9T120 59T90 143T81 261Q81 266 81 279T83 309T85 339T86 358Q94 446 108 511T149 620T218 685T325 707Q427 707 468 646T509 461Q509 437 508 412T504 358ZM198
807Q222 826 244 833T287 840Q305 840 318 834T345 821T370 807T397 801Q423 801 441 810T480 837L474 764Q453 745 432 738T385 731Q366 731 353 737T327 750T303 764T275 770Q249 770 229 759T191 734L198 807Z" />
<glyph unicode="&#xd6;" glyph-name="Odieresis" horiz-adv-x="548" d="M386 735L393 815H478L471 735H386ZM186 735L193 815H278L271 735H186ZM414 353Q417 388 419 417T421 473Q421 519 415 550T397 599T365 626T319 634Q286 634 262 621T221 576T193 490T174
353Q174 347 173 330T171 294T169 259T168 238Q168 144 192 105T269 66Q303 66 327 80T368 129T396 217T414 353ZM504 358Q496 266 481 198T439 84T370 16T263 -7Q211 -7 176 9T120 59T90 143T81 261Q81 266 81 279T83 309T85 339T86 358Q94 446 108 511T149 620T218
685T325 707Q427 707 468 646T509 461Q509 437 508 412T504 358Z" />
<glyph unicode="&#xd7;" glyph-name="multiply" horiz-adv-x="550" d="M293 253L176 137L120 193L236 310L120 427L176 483L293 367L410 483L466 427L350 310L466 193L410 137L293 253Z" />
<glyph unicode="&#xd8;" glyph-name="Oslash" horiz-adv-x="548" d="M504 358Q496 266 481 198T439 84T370 16T263 -7Q228 -7 198 1L162 -91H87L137 38Q106 70 94 125T81 261Q81 266 81 279T83 309T85 339T86 358Q94 446 108 511T149 620T218 685T325 707Q362
707 392 698L428 791H504L454 662Q483 632 496 582T509 461Q509 437 508 412T504 358ZM168 238Q168 180 177 142L364 626Q343 634 319 634Q286 634 262 621T221 576T193 490T174 353Q174 347 173 330T171 294T169 259T168 238ZM414 353Q417 388 419 417T421 473Q421
522 413 557L226 74Q242 66 269 66Q303 66 327 80T368 129T396 217T414 353Z" />
<glyph unicode="&#xd9;" glyph-name="Ugrave" horiz-adv-x="535" d="M306 726L184 841H295L389 726H306ZM461 185Q452 83 400 38T257 -7Q220 -7 189 2T134 32T98 84T85 158Q85 166 85 177T87 195L131 700H218L173 187Q172 175 172 166T171 152Q171 107 196 87T263
66Q308 66 337 89T372 166L419 700H506L461 185Z" />
<glyph unicode="&#xda;" glyph-name="Uacute" horiz-adv-x="535" d="M259 726L373 841H484L342 726H259ZM461 185Q452 83 400 38T257 -7Q220 -7 189 2T134 32T98 84T85 158Q85 166 85 177T87 195L131 700H218L173 187Q172 175 172 166T171 152Q171 107 196 87T263
66Q308 66 337 89T372 166L419 700H506L461 185Z" />
<glyph unicode="&#xdb;" glyph-name="Ucircumflex" horiz-adv-x="535" d="M382 730L328 794L262 730H166L286 845H378L479 730H382ZM461 185Q452 83 400 38T257 -7Q220 -7 189 2T134 32T98 84T85 158Q85 166 85 177T87 195L131 700H218L173 187Q172 175 172 166T171
152Q171 107 196 87T263 66Q308 66 337 89T372 166L419 700H506L461 185Z" />
<glyph unicode="&#xdc;" glyph-name="Udieresis" horiz-adv-x="535" d="M381 735L388 815H473L466 735H381ZM181 735L188 815H273L266 735H181ZM461 185Q452 83 400 38T257 -7Q220 -7 189 2T134 32T98 84T85 158Q85 166 85 177T87 195L131 700H218L173 187Q172
175 172 166T171 152Q171 107 196 87T263 66Q308 66 337 89T372 166L419 700H506L461 185Z" />
<glyph unicode="&#xdd;" glyph-name="Yacute" horiz-adv-x="491" d="M239 726L353 841H464L322 726H239ZM307 325L279 0H189L217 325L71 700H165L271 409L429 700H522L307 325Z" />
<glyph unicode="&#xde;" glyph-name="Thorn" horiz-adv-x="510" d="M470 350Q466 299 454 260T416 195T353 155T258 141H174L162 0H75L136 700H223L211 570Q230 571 250 572T294 574Q344 574 378 561T433 525T463 469T473 397Q473 389 472 374T470 350ZM382 355Q383
366 383 375T384 393Q384 449 365 475T299 502Q257 502 231 499Q216 497 205 496L180 214H274Q295 214 313 220T345 243T368 287T382 355Z" />
<glyph unicode="&#xdf;" glyph-name="germandbls" horiz-adv-x="519" d="M463 175Q463 81 419 37T279 -7Q274 -7 265 -6T246 -4T225 -1T208 3L214 76Q231 71 251 68T288 65Q313 65 329 74T356 97T370 129T374 166Q374 199 360 219T307 256Q269 274 252 298T235
360Q235 394 244 418T271 457T313 482T365 496Q371 510 375 528T380 568Q380 594 361 614T294 635Q256 635 232 612T202 540L155 0H70L116 533Q124 617 169 662T302 707Q377 707 415 670T454 574Q454 552 452 535T446 502T437 470T426 432Q365 432 341 418T316
369Q316 356 324 344T346 326Q369 317 390 304T427 272T453 230T463 175Z" />
<glyph unicode="&#xe0;" glyph-name="agrave" horiz-adv-x="498" d="M74 228Q81 302 98 355T144 441T215 491T314 507Q328 507 345 505T380 500T414 493T442 485L410 136Q410 134 409 126T408 103Q408 65 447 65L442 0H423Q391 0 369 15T337 62Q317 32 284 13T199
-7Q129 -7 100 39T71 170Q71 198 74 228ZM221 65Q247 65 266 74T298 99T319 133T328 172L351 431Q341 433 328 434T297 435Q158 435 158 163Q158 113 172 89T221 65ZM319 580L194 715H303L395 580H319Z" />
<glyph unicode="&#xe1;" glyph-name="aacute" horiz-adv-x="498" d="M74 228Q81 302 98 355T144 441T215 491T314 507Q328 507 345 505T380 500T414 493T442 485L410 136Q410 134 409 126T408 103Q408 65 447 65L442 0H423Q391 0 369 15T337 62Q317 32 284 13T199
-7Q129 -7 100 39T71 170Q71 198 74 228ZM221 65Q247 65 266 74T298 99T319 133T328 172L351 431Q341 433 328 434T297 435Q158 435 158 163Q158 113 172 89T221 65ZM256 580L372 715H481L342 580H256Z" />
<glyph unicode="&#xe2;" glyph-name="acircumflex" horiz-adv-x="498" d="M74 228Q81 302 98 355T144 441T215 491T314 507Q328 507 345 505T380 500T414 493T442 485L410 136Q410 134 409 126T408 103Q408 65 447 65L442 0H423Q391 0 369 15T337 62Q317 32 284
13T199 -7Q129 -7 100 39T71 170Q71 198 74 228ZM221 65Q247 65 266 74T298 99T319 133T328 172L351 431Q341 433 328 434T297 435Q158 435 158 163Q158 113 172 89T221 65ZM379 580L327 664L259 580H163L287 715H375L476 580H379Z" />
<glyph unicode="&#xe3;" glyph-name="atilde" horiz-adv-x="498" d="M74 228Q81 302 98 355T144 441T215 491T314 507Q328 507 345 505T380 500T414 493T442 485L410 136Q410 134 409 126T408 103Q408 65 447 65L442 0H423Q391 0 369 15T337 62Q317 32 284 13T199
-7Q129 -7 100 39T71 170Q71 198 74 228ZM221 65Q247 65 266 74T298 99T319 133T328 172L351 431Q341 433 328 434T297 435Q158 435 158 163Q158 113 172 89T221 65ZM183 667Q207 686 229 693T272 700Q290 700 303 694T330 681T355 667T382 661Q408 661 426 670T465
697L459 624Q438 605 417 598T370 591Q351 591 338 597T312 610T288 624T260 630Q234 630 214 619T176 594L183 667Z" />
<glyph unicode="&#xe4;" glyph-name="adieresis" horiz-adv-x="498" d="M74 228Q81 302 98 355T144 441T215 491T314 507Q328 507 345 505T380 500T414 493T442 485L410 136Q410 134 409 126T408 103Q408 65 447 65L442 0H423Q391 0 369 15T337 62Q317 32 284
13T199 -7Q129 -7 100 39T71 170Q71 198 74 228ZM221 65Q247 65 266 74T298 99T319 133T328 172L351 431Q341 433 328 434T297 435Q158 435 158 163Q158 113 172 89T221 65ZM373 595L380 675H465L458 595H373ZM173 595L180 675H265L258 595H173Z" />
<glyph unicode="&#xe5;" glyph-name="aring" horiz-adv-x="498" d="M74 228Q81 302 98 355T144 441T215 491T314 507Q328 507 345 505T380 500T414 493T442 485L410 136Q410 134 409 126T408 103Q408 65 447 65L442 0H423Q391 0 369 15T337 62Q317 32 284 13T199
-7Q129 -7 100 39T71 170Q71 198 74 228ZM221 65Q247 65 266 74T298 99T319 133T328 172L351 431Q341 433 328 434T297 435Q158 435 158 163Q158 113 172 89T221 65ZM405 645Q401 601 375 572T300 543Q262 543 239 569T215 634Q215 682 242 714T318 747Q359 747
382 722T406 657Q406 654 406 651T405 645ZM347 655Q347 672 340 683T313 695Q289 695 281 677T272 639Q272 623 278 610T305 597Q330 597 337 612T347 646V655Z" />
<glyph unicode="&#xe6;" glyph-name="ae" horiz-adv-x="715" d="M668 370Q668 324 654 294T613 244T551 217T473 209Q453 209 436 210T397 213V177Q397 143 403 121T421 87T445 70T473 65Q522 65 554 71T609 82L602 10Q590 7 574 4T541 -2T508 -5T477 -7Q429 -7
393 6T338 62Q317 30 282 12T188 -7Q166 -7 142 -1T98 19T64 59T51 122Q51 169 64 202T102 257T163 288T244 298Q263 298 283 297T323 293Q324 312 326 328Q328 342 328 354T329 371Q329 398 312 416T259 435Q216 435 184 430T113 413L119 487Q148 495 183 501T256
507Q307 507 338 493T385 454Q410 482 442 494T516 507Q558 507 587 496T634 465T660 421T668 370ZM214 65Q238 65 255 72T284 90T301 112T308 132L317 225Q297 227 276 228T233 230Q216 230 199 226T169 210T147 180T139 133Q139 95 158 80T214 65ZM515 436Q493
436 475 429T442 404T417 357T402 282Q418 280 430 280T458 279Q529 279 558 297T588 366Q588 380 585 393T574 415T552 430T515 436Z" />
<glyph unicode="&#xe7;" glyph-name="ccedilla" horiz-adv-x="404" d="M142 -131Q156 -134 170 -135T196 -137Q217 -137 228 -131T239 -103Q239 -89 224 -83T161 -76L179 -3Q153 1 134 12T101 44T80 98T73 179Q73 269 85 331T122 433T184 489T273 507Q298 507
329 502T381 491L375 416Q349 423 323 427T260 432Q238 432 222 423T194 392T175 333T162 240Q159 204 159 178Q159 142 164 121T178 88T200 72T229 68Q267 68 295 74T346 85L339 10Q318 4 293 0T243 -7L239 -27Q281 -32 298 -48T316 -97Q316 -151 283 -175T199
-200Q181 -200 166 -198T136 -193L142 -131Z" />
<glyph unicode="&#xe8;" glyph-name="egrave" horiz-adv-x="456" d="M426 370Q426 282 373 243T231 204Q211 204 195 205T157 208V172Q157 138 163 117T180 84T204 69T231 65Q280 65 312 71T367 82L360 10Q348 7 332 4T299 -2T266 -5T235 -7Q199 -7 170 0T119
27T85 83T73 179Q73 269 86 331T126 433T189 489T274 507Q316 507 345 496T392 465T418 421T426 370ZM273 436Q251 436 233 428T200 402T177 353T162 277Q177 275 189 275T216 274Q286 274 316 295T346 366Q346 380 343 393T332 415T310 430T273 436ZM283 580L158
715H267L359 580H283Z" />
<glyph unicode="&#xe9;" glyph-name="eacute" horiz-adv-x="456" d="M426 370Q426 282 373 243T231 204Q211 204 195 205T157 208V172Q157 138 163 117T180 84T204 69T231 65Q280 65 312 71T367 82L360 10Q348 7 332 4T299 -2T266 -5T235 -7Q199 -7 170 0T119
27T85 83T73 179Q73 269 86 331T126 433T189 489T274 507Q316 507 345 496T392 465T418 421T426 370ZM273 436Q251 436 233 428T200 402T177 353T162 277Q177 275 189 275T216 274Q286 274 316 295T346 366Q346 380 343 393T332 415T310 430T273 436ZM222 580L338
715H447L308 580H222Z" />
<glyph unicode="&#xea;" glyph-name="ecircumflex" horiz-adv-x="456" d="M426 370Q426 282 373 243T231 204Q211 204 195 205T157 208V172Q157 138 163 117T180 84T204 69T231 65Q280 65 312 71T367 82L360 10Q348 7 332 4T299 -2T266 -5T235 -7Q199 -7 170 0T119
27T85 83T73 179Q73 269 86 331T126 433T189 489T274 507Q316 507 345 496T392 465T418 421T426 370ZM273 436Q251 436 233 428T200 402T177 353T162 277Q177 275 189 275T216 274Q286 274 316 295T346 366Q346 380 343 393T332 415T310 430T273 436ZM347 580L295
664L227 580H131L255 715H343L444 580H347Z" />
<glyph unicode="&#xeb;" glyph-name="edieresis" horiz-adv-x="456" d="M426 370Q426 282 373 243T231 204Q211 204 195 205T157 208V172Q157 138 163 117T180 84T204 69T231 65Q280 65 312 71T367 82L360 10Q348 7 332 4T299 -2T266 -5T235 -7Q199 -7 170 0T119
27T85 83T73 179Q73 269 86 331T126 433T189 489T274 507Q316 507 345 496T392 465T418 421T426 370ZM273 436Q251 436 233 428T200 402T177 353T162 277Q177 275 189 275T216 274Q286 274 316 295T346 366Q346 380 343 393T332 415T310 430T273 436ZM349 595L356
675H441L434 595H349ZM149 595L156 675H241L234 595H149Z" />
<glyph unicode="&#xec;" glyph-name="igrave" horiz-adv-x="245" d="M70 0L113 500H198L155 0H70ZM153 580L28 715H137L229 580H153Z" />
<glyph unicode="&#xed;" glyph-name="iacute" horiz-adv-x="245" d="M70 0L113 500H198L155 0H70ZM95 580L211 715H320L181 580H95Z" />
<glyph unicode="&#xee;" glyph-name="icircumflex" horiz-adv-x="245" d="M70 0L113 500H198L155 0H70ZM222 580L170 664L102 580H6L130 715H218L319 580H222Z" />
<glyph unicode="&#xef;" glyph-name="idieresis" horiz-adv-x="245" d="M70 0L113 500H198L155 0H70ZM222 595L229 675H314L307 595H222ZM22 595L29 675H114L107 595H22Z" />
<glyph unicode="&#xf0;" glyph-name="eth" horiz-adv-x="503" d="M357 677Q405 655 430 607T455 465Q455 462 455 451T454 428T452 404T451 389Q441 265 427 188T388 68T327 9T234 -7Q200 -7 171 3T121 35T88 92T76 178Q76 188 76 198T78 220Q83 274 91 319T118
396T172 446T261 464Q299 464 325 454T368 433Q369 445 369 454T369 466Q369 531 356 564T315 614L276 556H194L245 632Q226 634 205 634T158 637L164 707Q199 705 230 704T288 697L324 750H406L357 677ZM246 65Q269 65 286 75T318 116T343 207T363 364Q354 369
327 380T262 392Q235 392 218 380T189 344T172 287T162 211Q161 200 161 190T160 171Q160 120 178 93T246 65Z" />
<glyph unicode="&#xf1;" glyph-name="ntilde" horiz-adv-x="506" d="M70 0L113 500H183L184 442Q206 472 237 489T314 507Q392 507 421 470T450 363Q450 353 450 342T448 320L421 0H336L363 320Q364 328 365 339T366 358Q366 392 351 413T292 435Q264 435 244
422T210 389T189 344T180 296L155 0H70ZM182 667Q206 686 228 693T271 700Q289 700 302 694T329 681T354 667T381 661Q407 661 425 670T464 697L458 624Q437 605 416 598T369 591Q350 591 337 597T311 610T287 624T259 630Q233 630 213 619T175 594L182 667Z" />
<glyph unicode="&#xf2;" glyph-name="ograve" horiz-adv-x="510" d="M459 316Q459 150 408 72T244 -7Q204 -7 173 2T119 35T86 98T74 196Q74 358 124 432T289 507Q459 507 459 316ZM369 245Q372 284 372 314Q372 382 352 409T283 437Q253 437 232 427T198 395T176
335T163 245Q160 215 160 190Q160 122 181 93T250 63Q306 63 333 105T369 245ZM298 580L173 715H282L374 580H298Z" />
<glyph unicode="&#xf3;" glyph-name="oacute" horiz-adv-x="510" d="M459 316Q459 150 408 72T244 -7Q204 -7 173 2T119 35T86 98T74 196Q74 358 124 432T289 507Q459 507 459 316ZM369 245Q372 284 372 314Q372 382 352 409T283 437Q253 437 232 427T198 395T176
335T163 245Q160 215 160 190Q160 122 181 93T250 63Q306 63 333 105T369 245ZM227 580L343 715H452L313 580H227Z" />
<glyph unicode="&#xf4;" glyph-name="ocircumflex" horiz-adv-x="510" d="M459 316Q459 150 408 72T244 -7Q204 -7 173 2T119 35T86 98T74 196Q74 358 124 432T289 507Q459 507 459 316ZM369 245Q372 284 372 314Q372 382 352 409T283 437Q253 437 232 427T198
395T176 335T163 245Q160 215 160 190Q160 122 181 93T250 63Q306 63 333 105T369 245ZM355 580L303 664L235 580H139L263 715H351L452 580H355Z" />
<glyph unicode="&#xf5;" glyph-name="otilde" horiz-adv-x="510" d="M459 316Q459 150 408 72T244 -7Q204 -7 173 2T119 35T86 98T74 196Q74 358 124 432T289 507Q459 507 459 316ZM369 245Q372 284 372 314Q372 382 352 409T283 437Q253 437 232 427T198 395T176
335T163 245Q160 215 160 190Q160 122 181 93T250 63Q306 63 333 105T369 245ZM168 667Q192 686 214 693T257 700Q275 700 288 694T315 681T340 667T367 661Q393 661 411 670T450 697L444 624Q423 605 402 598T355 591Q336 591 323 597T297 610T273 624T245 630Q219
630 199 619T161 594L168 667Z" />
<glyph unicode="&#xf6;" glyph-name="odieresis" horiz-adv-x="510" d="M459 316Q459 150 408 72T244 -7Q204 -7 173 2T119 35T86 98T74 196Q74 358 124 432T289 507Q459 507 459 316ZM369 245Q372 284 372 314Q372 382 352 409T283 437Q253 437 232 427T198 395T176
335T163 245Q160 215 160 190Q160 122 181 93T250 63Q306 63 333 105T369 245ZM355 595L362 675H447L440 595H355ZM155 595L162 675H247L240 595H155Z" />
<glyph unicode="&#xf7;" glyph-name="divide" horiz-adv-x="550" d="M99 275L105 350H485L479 275H99ZM220 65L229 165H329L320 65H220ZM255 460L263 560H363L355 460H255Z" />
<glyph unicode="&#xf8;" glyph-name="oslash" horiz-adv-x="510" d="M459 316Q459 150 408 72T244 -7Q220 -7 199 -4L164 -89H86L133 23Q104 45 89 86T74 196Q74 358 124 432T289 507Q312 507 335 502L371 589H448L400 474Q459 427 459 316ZM160 190Q160 141 171
113L306 435Q301 436 295 436T283 437Q253 437 232 427T198 395T176 335T163 245Q160 215 160 190ZM369 245Q372 284 372 314Q372 359 363 386L228 64Q233 63 238 63T250 63Q306 63 333 105T369 245Z" />
<glyph unicode="&#xf9;" glyph-name="ugrave" horiz-adv-x="491" d="M193 500L165 170Q164 159 164 150T163 131Q163 102 175 84T227 65Q256 65 276 79T308 115T327 162T335 211L359 500H444L401 0H331L329 53Q309 25 280 9T207 -7Q169 -7 145 2T106 29T85 72T79
130Q79 142 79 154T81 180L108 500H193ZM286 580L161 715H270L362 580H286Z" />
<glyph unicode="&#xfa;" glyph-name="uacute" horiz-adv-x="491" d="M193 500L165 170Q164 159 164 150T163 131Q163 102 175 84T227 65Q256 65 276 79T308 115T327 162T335 211L359 500H444L401 0H331L329 53Q309 25 280 9T207 -7Q169 -7 145 2T106 29T85 72T79
130Q79 142 79 154T81 180L108 500H193ZM224 580L340 715H449L310 580H224Z" />
<glyph unicode="&#xfb;" glyph-name="ucircumflex" horiz-adv-x="491" d="M193 500L165 170Q164 159 164 150T163 131Q163 102 175 84T227 65Q256 65 276 79T308 115T327 162T335 211L359 500H444L401 0H331L329 53Q309 25 280 9T207 -7Q169 -7 145 2T106 29T85
72T79 130Q79 142 79 154T81 180L108 500H193ZM345 580L293 664L225 580H129L253 715H341L442 580H345Z" />
<glyph unicode="&#xfc;" glyph-name="udieresis" horiz-adv-x="491" d="M193 500L165 170Q164 159 164 150T163 131Q163 102 175 84T227 65Q256 65 276 79T308 115T327 162T335 211L359 500H444L401 0H331L329 53Q309 25 280 9T207 -7Q169 -7 145 2T106 29T85
72T79 130Q79 142 79 154T81 180L108 500H193ZM344 595L351 675H436L429 595H344ZM144 595L151 675H236L229 595H144Z" />
<glyph unicode="&#xfd;" glyph-name="yacute" horiz-adv-x="463" d="M269 -44Q259 -73 248 -97T221 -139T185 -165T133 -175Q117 -175 102 -173T77 -169L83 -96Q94 -98 107 -99T135 -100Q150 -100 160 -89T179 -55L200 0H180L68 500H158L239 87L372 500H461L269
-44ZM233 580L349 715H458L319 580H233Z" />
<glyph unicode="&#xfe;" glyph-name="thorn" horiz-adv-x="499" d="M55 -170L131 700H216L194 455Q214 478 243 492T314 507Q389 507 419 461T450 334Q450 322 450 304T447 272Q440 196 426 143T384 56T314 8T210 -7Q196 -7 182 -6T154 -3L140 -170H55ZM294 435Q265
435 245 422T211 389T190 346T181 300L160 68Q184 65 227 65Q261 65 284 78T322 116T347 181T360 272Q362 286 362 303T363 332Q363 384 348 409T294 435Z" />
<glyph unicode="&#xff;" glyph-name="ydieresis" horiz-adv-x="463" d="M269 -44Q259 -73 248 -97T221 -139T185 -165T133 -175Q117 -175 102 -173T77 -169L83 -96Q94 -98 107 -99T135 -100Q150 -100 160 -89T179 -55L200 0H180L68 500H158L239 87L372 500H461L269
-44ZM332 595L339 675H424L417 595H332ZM132 595L139 675H224L217 595H132Z" />
<glyph unicode="&#x2013;" glyph-name="endash" horiz-adv-x="550" d="M99 275L105 350H485L479 275H99Z" />
<glyph unicode="&#x2014;" glyph-name="emdash" horiz-adv-x="605" d="M79 275L85 350H560L554 275H79Z" />
<glyph unicode="&#x2018;" glyph-name="quoteleft" horiz-adv-x="205" d="M136 699H201L157 542L149 452H54L62 542L136 699Z" />
<glyph unicode="&#x2019;" glyph-name="quoteright" horiz-adv-x="205" d="M119 453H54L98 610L106 700H201L193 610L119 453Z" />
<glyph unicode="&#x201a;" glyph-name="quotesinglbase" horiz-adv-x="205" d="M66 -157H1L45 0L52 90H147L140 0L66 -157Z" />
<glyph unicode="&#x201c;" glyph-name="quotedblleft" horiz-adv-x="360" d="M136 699H201L157 542L149 452H54L62 542L136 699ZM291 699H356L312 542L304 452H209L217 542L291 699Z" />
<glyph unicode="&#x201d;" glyph-name="quotedblright" horiz-adv-x="360" d="M274 453H209L253 610L261 700H356L348 610L274 453ZM119 453H54L98 610L106 700H201L193 610L119 453Z" />
<glyph unicode="&#x201e;" glyph-name="quotedblbase" horiz-adv-x="360" d="M221 -157H156L200 0L207 90H302L295 0L221 -157ZM66 -157H1L45 0L52 90H147L140 0L66 -157Z" />
<glyph unicode="&#x2022;" glyph-name="bullet" horiz-adv-x="290" d="M80 235L94 390H244L230 235H80Z" />
<glyph unicode="&#x2039;" glyph-name="guilsinglleft" horiz-adv-x="305" d="M162 92L91 299L198 506H265L183 299L227 92H162Z" />
<glyph unicode="&#x203a;" glyph-name="guilsinglright" horiz-adv-x="305" d="M72 92L154 299L110 506H175L246 299L139 92H72Z" />
</font>
</defs>
</svg>
